  0
SECTION
  2
HEADER
  9
$ACADVER
  1
AC1015
  9
$ACADMAINTVER
 70
     6
  9
$DWGCODEPAGE
  3
ANSI_1252
  9
$INSBASE
 10
0.0
 20
0.0
 30
0.0
  9
$EXTMIN
 10
0.0
 20
0.0
 30
0.0
  9
$EXTMAX
 10
112.646953488526
 20
148.5000000000001
 30
0.0
  9
$LIMMIN
 10
0.0
 20
0.0
  9
$LIMMAX
 10
12.0
 20
9.0
  9
$ORTHOMODE
 70
     0
  9
$REGENMODE
 70
     1
  9
$FILLMODE
 70
     1
  9
$QTEXTMODE
 70
     0
  9
$MIRRTEXT
 70
     1
  9
$LTSCALE
 40
1.0
  9
$ATTMODE
 70
     1
  9
$TEXTSIZE
 40
0.2
  9
$TRACEWID
 40
0.05
  9
$TEXTSTYLE
  7
Standard
  9
$CLAYER
  8
0
  9
$CELTYPE
  6
ByLayer
  9
$CECOLOR
 62
   256
  9
$CELTSCALE
 40
1.0
  9
$DISPSILH
 70
     0
  9
$DIMSCALE
 40
1.0
  9
$DIMASZ
 40
0.18
  9
$DIMEXO
 40
0.0625
  9
$DIMDLI
 40
0.38
  9
$DIMRND
 40
0.0
  9
$DIMDLE
 40
0.0
  9
$DIMEXE
 40
0.18
  9
$DIMTP
 40
0.0
  9
$DIMTM
 40
0.0
  9
$DIMTXT
 40
0.18
  9
$DIMCEN
 40
0.09
  9
$DIMTSZ
 40
0.0
  9
$DIMTOL
 70
     0
  9
$DIMLIM
 70
     0
  9
$DIMTIH
 70
     1
  9
$DIMTOH
 70
     1
  9
$DIMSE1
 70
     0
  9
$DIMSE2
 70
     0
  9
$DIMTAD
 70
     0
  9
$DIMZIN
 70
     0
  9
$DIMBLK
  1

  9
$DIMASO
 70
     1
  9
$DIMSHO
 70
     1
  9
$DIMPOST
  1

  9
$DIMAPOST
  1

  9
$DIMALT
 70
     0
  9
$DIMALTD
 70
     2
  9
$DIMALTF
 40
25.4
  9
$DIMLFAC
 40
1.0
  9
$DIMTOFL
 70
     0
  9
$DIMTVP
 40
0.0
  9
$DIMTIX
 70
     0
  9
$DIMSOXD
 70
     0
  9
$DIMSAH
 70
     0
  9
$DIMBLK1
  1

  9
$DIMBLK2
  1

  9
$DIMSTYLE
  2
Standard
  9
$DIMCLRD
 70
     0
  9
$DIMCLRE
 70
     0
  9
$DIMCLRT
 70
     0
  9
$DIMTFAC
 40
1.0
  9
$DIMGAP
 40
0.09
  9
$DIMJUST
 70
     0
  9
$DIMSD1
 70
     0
  9
$DIMSD2
 70
     0
  9
$DIMTOLJ
 70
     1
  9
$DIMTZIN
 70
     0
  9
$DIMALTZ
 70
     0
  9
$DIMALTTZ
 70
     0
  9
$DIMUPT
 70
     0
  9
$DIMDEC
 70
     4
  9
$DIMTDEC
 70
     4
  9
$DIMALTU
 70
     2
  9
$DIMALTTD
 70
     2
  9
$DIMTXSTY
  7
Standard
  9
$DIMAUNIT
 70
     0
  9
$DIMADEC
 70
     0
  9
$DIMALTRND
 40
0.0
  9
$DIMAZIN
 70
     0
  9
$DIMDSEP
 70
    46
  9
$DIMATFIT
 70
     3
  9
$DIMFRAC
 70
     0
  9
$DIMLDRBLK
  1

  9
$DIMLUNIT
 70
     2
  9
$DIMLWD
 70
    -2
  9
$DIMLWE
 70
    -2
  9
$DIMTMOVE
 70
     0
  9
$LUNITS
 70
     2
  9
$LUPREC
 70
     4
  9
$SKETCHINC
 40
0.1
  9
$FILLETRAD
 40
0.5
  9
$AUNITS
 70
     0
  9
$AUPREC
 70
     0
  9
$MENU
  1
.
  9
$ELEVATION
 40
0.0
  9
$PELEVATION
 40
0.0
  9
$THICKNESS
 40
0.0
  9
$LIMCHECK
 70
     0
  9
$CHAMFERA
 40
0.5
  9
$CHAMFERB
 40
0.5
  9
$CHAMFERC
 40
1.0
  9
$CHAMFERD
 40
0.0
  9
$SKPOLY
 70
     0
  9
$TDCREATE
 40
2456958.392495706
  9
$TDUCREATE
 40
2456958.350829039
  9
$TDUPDATE
 40
2456958.392496065
  9
$TDUUPDATE
 40
2456958.350829398
  9
$TDINDWG
 40
0.0000000116
  9
$TDUSRTIMER
 40
0.0000000116
  9
$USRTIMER
 70
     1
  9
$ANGBASE
 50
0.0
  9
$ANGDIR
 70
     0
  9
$PDMODE
 70
     0
  9
$PDSIZE
 40
0.0
  9
$PLINEWID
 40
0.0
  9
$SPLFRAME
 70
     0
  9
$SPLINETYPE
 70
     6
  9
$SPLINESEGS
 70
     8
  9
$HANDSEED
  5
4A1
  9
$SURFTAB1
 70
     6
  9
$SURFTAB2
 70
     6
  9
$SURFTYPE
 70
     6
  9
$SURFU
 70
     6
  9
$SURFV
 70
     6
  9
$UCSBASE
  2

  9
$UCSNAME
  2

  9
$UCSORG
 10
0.0
 20
0.0
 30
0.0
  9
$UCSXDIR
 10
1.0
 20
0.0
 30
0.0
  9
$UCSYDIR
 10
0.0
 20
1.0
 30
0.0
  9
$UCSORTHOREF
  2

  9
$UCSORTHOVIEW
 70
     0
  9
$UCSORGTOP
 10
0.0
 20
0.0
 30
0.0
  9
$UCSORGBOTTOM
 10
0.0
 20
0.0
 30
0.0
  9
$UCSORGLEFT
 10
0.0
 20
0.0
 30
0.0
  9
$UCSORGRIGHT
 10
0.0
 20
0.0
 30
0.0
  9
$UCSORGFRONT
 10
0.0
 20
0.0
 30
0.0
  9
$UCSORGBACK
 10
0.0
 20
0.0
 30
0.0
  9
$PUCSBASE
  2

  9
$PUCSNAME
  2

  9
$PUCSORG
 10
0.0
 20
0.0
 30
0.0
  9
$PUCSXDIR
 10
1.0
 20
0.0
 30
0.0
  9
$PUCSYDIR
 10
0.0
 20
1.0
 30
0.0
  9
$PUCSORTHOREF
  2

  9
$PUCSORTHOVIEW
 70
     0
  9
$PUCSORGTOP
 10
0.0
 20
0.0
 30
0.0
  9
$PUCSORGBOTTOM
 10
0.0
 20
0.0
 30
0.0
  9
$PUCSORGLEFT
 10
0.0
 20
0.0
 30
0.0
  9
$PUCSORGRIGHT
 10
0.0
 20
0.0
 30
0.0
  9
$PUCSORGFRONT
 10
0.0
 20
0.0
 30
0.0
  9
$PUCSORGBACK
 10
0.0
 20
0.0
 30
0.0
  9
$USERI1
 70
     0
  9
$USERI2
 70
     0
  9
$USERI3
 70
     0
  9
$USERI4
 70
     0
  9
$USERI5
 70
     0
  9
$USERR1
 40
18.1
  9
$USERR2
 40
0.0
  9
$USERR3
 40
0.0
  9
$USERR4
 40
0.0
  9
$USERR5
 40
0.0
  9
$WORLDVIEW
 70
     1
  9
$SHADEDGE
 70
     3
  9
$SHADEDIF
 70
    70
  9
$TILEMODE
 70
     1
  9
$MAXACTVP
 70
    64
  9
$PINSBASE
 10
0.0
 20
0.0
 30
0.0
  9
$PLIMCHECK
 70
     0
  9
$PEXTMIN
 10
1.00000000000000E+20
 20
1.00000000000000E+20
 30
1.00000000000000E+20
  9
$PEXTMAX
 10
-1.00000000000000E+20
 20
-1.00000000000000E+20
 30
-1.00000000000000E+20
  9
$PLIMMIN
 10
0.0
 20
0.0
  9
$PLIMMAX
 10
12.0
 20
9.0
  9
$UNITMODE
 70
     0
  9
$VISRETAIN
 70
     1
  9
$PLINEGEN
 70
     0
  9
$PSLTSCALE
 70
     1
  9
$TREEDEPTH
 70
  3020
  9
$CMLSTYLE
  2
Standard
  9
$CMLJUST
 70
     0
  9
$CMLSCALE
 40
1.0
  9
$PROXYGRAPHICS
 70
     1
  9
$MEASUREMENT
 70
     1
  9
$CELWEIGHT
370
    -1
  9
$ENDCAPS
280
     0
  9
$JOINSTYLE
280
     0
  9
$LWDISPLAY
290
     0
  9
$INSUNITS
 70
     4
  9
$HYPERLINKBASE
  1

  9
$STYLESHEET
  1

  9
$XEDIT
290
     1
  9
$CEPSNTYPE
380
     0
  9
$PSTYLEMODE
290
     1
  9
$FINGERPRINTGUID
  2
{596EC174-F983-4F7C-8DB2-E0ED54D605C7}
  9
$VERSIONGUID
  2
{FAEB1C32-E019-11D5-929B-00C0DF256EC4}
  9
$EXTNAMES
290
     1
  9
$PSVPSCALE
 40
0.0
  9
$OLESTARTUP
290
     0
  0
ENDSEC
  0
SECTION
  2
CLASSES
  0
CLASS
  1
ACDBDICTIONARYWDFLT
  2
AcDbDictionaryWithDefault
  3
ObjectDBX Classes
 90
        0
280
     0
281
     0
  0
CLASS
  1
VISUALSTYLE
  2
AcDbVisualStyle
  3
ObjectDBX Classes
 90
     4095
280
     0
281
     0
  0
CLASS
  1
MATERIAL
  2
AcDbMaterial
  3
ObjectDBX Classes
 90
     1153
280
     0
281
     0
  0
CLASS
  1
DICTIONARYVAR
  2
AcDbDictionaryVar
  3
ObjectDBX Classes
 90
        0
280
     0
281
     0
  0
CLASS
  1
ACDBPLACEHOLDER
  2
AcDbPlaceHolder
  3
ObjectDBX Classes
 90
        0
280
     0
281
     0
  0
CLASS
  1
LAYOUT
  2
AcDbLayout
  3
ObjectDBX Classes
 90
        0
280
     0
281
     0
  0
ENDSEC
  0
SECTION
  2
TABLES
  0
TABLE
  2
VPORT
  5
8
330
0
100
AcDbSymbolTable
 70
     1
  0
VPORT
  5
29
330
8
100
AcDbSymbolTableRecord
100
AcDbViewportTableRecord
  2
*Active
 70
     0
 10
0.0
 20
0.0
 11
1.0
 21
1.0
 12
56.323476744263
 22
74.25000000000006
 13
0.0
 23
0.0
 14
0.5
 24
0.5
 15
0.5
 25
0.5
 16
0.0
 26
0.0
 36
1.0
 17
0.0
 27
0.0
 37
0.0
 40
163.3500000000001
 41
1.60267857142857
 42
50.0
 43
0.0
 44
0.0
 50
0.0
 51
0.0
 71
     0
 72
   100
 73
     1
 74
     3
 75
     0
 76
     0
 77
     0
 78
     0
281
     0
 65
     1
110
0.0
120
0.0
130
0.0
111
1.0
121
0.0
131
0.0
112
0.0
122
1.0
132
0.0
 79
     0
146
0.0
  0
ENDTAB
  0
TABLE
  2
LTYPE
  5
5
330
0
100
AcDbSymbolTable
 70
     8
  0
LTYPE
  5
14
330
5
100
AcDbSymbolTableRecord
100
AcDbLinetypeTableRecord
  2
ByBlock
 70
     0
  3

 72
    65
 73
     0
 40
0.0
  0
LTYPE
  5
15
330
5
100
AcDbSymbolTableRecord
100
AcDbLinetypeTableRecord
  2
ByLayer
 70
     0
  3

 72
    65
 73
     0
 40
0.0
  0
LTYPE
  5
16
330
5
100
AcDbSymbolTableRecord
100
AcDbLinetypeTableRecord
  2
Continuous
 70
     0
  3
Solid line
 72
    65
 73
     0
 40
0.0
  0
LTYPE
  5
3F
330
5
100
AcDbSymbolTableRecord
100
AcDbLinetypeTableRecord
  2
DASHED
 70
     0
  3
Dashed
 72
    65
 73
     2
 40
15.0
 49
7.0
 74
     0
 49
-8.0
 74
     0
  0
LTYPE
  5
40
330
5
100
AcDbSymbolTableRecord
100
AcDbLinetypeTableRecord
  2
DOTTED
 70
     0
  3
Dotted
 72
    65
 73
     2
 40
1.0
 49
0.0
 74
     0
 49
-1.0
 74
     0
  0
LTYPE
  5
41
330
5
100
AcDbSymbolTableRecord
100
AcDbLinetypeTableRecord
  2
DOT_CENTER
 70
     0
  3
Dot_Center
 72
    65
 73
     4
 40
14.0
 49
12.0
 74
     0
 49
-1.0
 74
     0
 49
0.0
 74
     0
 49
-1.0
 74
     0
  0
LTYPE
  5
42
330
5
100
AcDbSymbolTableRecord
100
AcDbLinetypeTableRecord
  2
LONG_DASHED
 70
     0
  3
Long_Dashed
 72
    65
 73
     2
 40
15.0
 49
10.0
 74
     0
 49
-5.0
 74
     0
  0
LTYPE
  5
43
330
5
100
AcDbSymbolTableRecord
100
AcDbLinetypeTableRecord
  2
DASH_CENTER
 70
     0
  3
Dash_Center
 72
    65
 73
     4
 40
14.0
 49
11.0
 74
     0
 49
-1.0
 74
     0
 49
1.0
 74
     0
 49
-1.0
 74
     0
  0
LTYPE
  5
44
330
5
100
AcDbSymbolTableRecord
100
AcDbLinetypeTableRecord
  2
PHANTOM
 70
     0
  3
Phantom
 72
    65
 73
     6
 40
13.0
 49
10.0
 74
     0
 49
-1.0
 74
     0
 49
0.0
 74
     0
 49
-1.0
 74
     0
 49
0.0
 74
     0
 49
-1.0
 74
     0
  0
LTYPE
  5
45
330
5
100
AcDbSymbolTableRecord
100
AcDbLinetypeTableRecord
  2
CENTER_DASH_DASH
 70
     0
  3
Center_Dash_Dash
 72
    65
 73
     6
 40
14.0
 49
9.0
 74
     0
 49
-1.0
 74
     0
 49
1.0
 74
     0
 49
-1.0
 74
     0
 49
1.0
 74
     0
 49
-1.0
 74
     0
  0
ENDTAB
  0
TABLE
  2
LAYER
  5
2
330
0
100
AcDbSymbolTable
 70
     2
  0
LAYER
  5
10
330
2
100
AcDbSymbolTableRecord
100
AcDbLayerTableRecord
  2
0
 70
     0
 62
     7
  6
Continuous
370
    -3
390
F
  0
LAYER
  5
46
330
2
100
AcDbSymbolTableRecord
100
AcDbLayerTableRecord
  2
1
 70
     0
 62
     7
  6
Continuous
370
    -3
390
F
  0
ENDTAB
  0
TABLE
  2
STYLE
  5
3
330
0
100
AcDbSymbolTable
 70
     4
  0
STYLE
  5
11
330
3
100
AcDbSymbolTableRecord
100
AcDbTextStyleTableRecord
  2
Standard
 70
     0
 40
0.0
 41
1.0
 50
0.0
 71
     0
 42
0.2
  3
txt
  4

  0
STYLE
  5
440
330
3
100
AcDbSymbolTableRecord
100
AcDbTextStyleTableRecord
  2
CONVERTER_11
 70
     0
 40
0.0
 41
1.2
 50
0.0
 71
     0
 42
0.2
  3
ARIAL.TTF
  4

  0
STYLE
  5
445
330
3
100
AcDbSymbolTableRecord
100
AcDbTextStyleTableRecord
  2
CONVERTER_12
 70
     0
 40
0.0
 41
1.38
 50
0.0
 71
     0
 42
0.2
  3
ARIAL.TTF
  4

  0
STYLE
  5
44B
330
3
100
AcDbSymbolTableRecord
100
AcDbTextStyleTableRecord
  2
CONVERTER_13
 70
     0
 40
0.0
 41
0.95
 50
0.0
 71
     0
 42
0.2
  3
simplex.shx
  4

  0
ENDTAB
  0
TABLE
  2
VIEW
  5
6
330
0
100
AcDbSymbolTable
 70
     0
  0
ENDTAB
  0
TABLE
  2
UCS
  5
7
330
0
100
AcDbSymbolTable
 70
     0
  0
ENDTAB
  0
TABLE
  2
APPID
  5
9
330
0
100
AcDbSymbolTable
 70
     1
  0
APPID
  5
12
330
9
100
AcDbSymbolTableRecord
100
AcDbRegAppTableRecord
  2
ACAD
 70
     0
  0
ENDTAB
  0
TABLE
  2
DIMSTYLE
  5
A
330
0
100
AcDbSymbolTable
 70
     4
100
AcDbDimStyleTable
  0
DIMSTYLE
105
27
330
A
100
AcDbSymbolTableRecord
100
AcDbDimStyleTableRecord
  2
Standard
 70
     0
178
     0
340
11
  0
DIMSTYLE
105
45A
102
{ACAD_REACTORS
330
45B
102
}
330
A
100
AcDbSymbolTableRecord
100
AcDbDimStyleTableRecord
  2
ME10_DIM_10
 70
     0
 41
1.5
 42
0.25
 44
0.5
 73
     0
 74
     0
 77
     1
 78
     8
140
1.5
147
1.0
172
     1
173
     1
174
     1
175
     1
176
     7
177
     7
271
     2
178
     7
271
     2
340
44B
  0
DIMSTYLE
105
465
102
{ACAD_REACTORS
330
466
102
}
330
A
100
AcDbSymbolTableRecord
100
AcDbDimStyleTableRecord
  2
ME10_DIM_11
 70
     0
 41
1.5
 42
0.25
 44
0.5
 73
     0
 74
     0
 77
     1
 78
     8
140
1.5
147
1.0
172
     1
173
     1
174
     1
175
     1
176
     7
177
     7
271
     2
178
     7
271
     2
340
44B
  0
DIMSTYLE
105
470
102
{ACAD_REACTORS
330
471
102
}
330
A
100
AcDbSymbolTableRecord
100
AcDbDimStyleTableRecord
  2
ME10_DIM_12
 70
     0
 41
1.5
 42
0.25
 44
0.5
 73
     0
 74
     0
 77
     1
 78
     8
140
1.5
147
1.0
172
     1
173
     1
174
     1
175
     1
176
     7
177
     7
271
     2
178
     7
271
     2
340
44B
  0
ENDTAB
  0
TABLE
  2
BLOCK_RECORD
  5
1
330
0
100
AcDbSymbolTable
 70
     5
  0
BLOCK_RECORD
  5
1F
330
1
100
AcDbSymbolTableRecord
100
AcDbBlockTableRecord
  2
*Model_Space
340
22
  0
BLOCK_RECORD
  5
1B
330
1
100
AcDbSymbolTableRecord
100
AcDbBlockTableRecord
  2
*Paper_Space
340
1E
  0
BLOCK_RECORD
  5
23
330
1
100
AcDbSymbolTableRecord
100
AcDbBlockTableRecord
  2
*Paper_Space0
340
26
  0
BLOCK_RECORD
  5
47
330
1
100
AcDbSymbolTableRecord
100
AcDbBlockTableRecord
  2
_dummy_frame
340
0
102
{BLKREFS
331
4A
102
}
  0
BLOCK_RECORD
  5
451
330
1
100
AcDbSymbolTableRecord
100
AcDbBlockTableRecord
  2
*D2
340
0
  0
BLOCK_RECORD
  5
45C
330
1
100
AcDbSymbolTableRecord
100
AcDbBlockTableRecord
  2
*D3
340
0
  0
BLOCK_RECORD
  5
467
330
1
100
AcDbSymbolTableRecord
100
AcDbBlockTableRecord
  2
*D4
340
0
  0
ENDTAB
  0
ENDSEC
  0
SECTION
  2
BLOCKS
  0
BLOCK
  5
20
330
1F
100
AcDbEntity
  8
0
100
AcDbBlockBegin
  2
*Model_Space
 70
     0
 10
0.0
 20
0.0
 30
0.0
  3
*Model_Space
  1

  0
ENDBLK
  5
21
330
1F
100
AcDbEntity
  8
0
100
AcDbBlockEnd
  0
BLOCK
  5
1C
330
1B
100
AcDbEntity
 67
     1
  8
0
100
AcDbBlockBegin
  2
*Paper_Space
 70
     0
 10
0.0
 20
0.0
 30
0.0
  3
*Paper_Space
  1

  0
ENDBLK
  5
1D
330
1B
100
AcDbEntity
 67
     1
  8
0
100
AcDbBlockEnd
  0
BLOCK
  5
24
330
23
100
AcDbEntity
  8
0
100
AcDbBlockBegin
  2
*Paper_Space0
 70
     0
 10
0.0
 20
0.0
 30
0.0
  3
*Paper_Space0
  1

  0
ENDBLK
  5
25
330
23
100
AcDbEntity
  8
0
100
AcDbBlockEnd
  0
BLOCK
  5
48
330
47
100
AcDbEntity
  8
0
100
AcDbBlockBegin
  2
_dummy_frame
 70
     0
 10
112.646953488526
 20
18.0784029349201
 30
0.0
  3
_dummy_frame
  1

  0
POINT
  5
4B
330
47
100
AcDbEntity
  8
1
 62
     7
 60
     1
100
AcDbPoint
 10
112.646953488526
 20
18.0784029349201
 30
0.0
  0
ENDBLK
  5
49
330
47
100
AcDbEntity
  8
0
100
AcDbBlockEnd
  0
BLOCK
  5
458
330
451
100
AcDbEntity
  8
0
100
AcDbBlockBegin
  2
*D2
 70
     1
 10
0.0
 20
0.0
 30
0.0
  3
*D2
  1

  0
LINE
  5
452
330
451
100
AcDbEntity
  8
1
  6
Continuous
 62
     7
100
AcDbLine
 10
28.34695353390405
 20
110.8852051301714
 30
0.0
 11
49.34695353390407
 21
110.8852051301714
 31
0.0
  0
LINE
  5
453
330
451
100
AcDbEntity
  8
1
  6
Continuous
 62
     7
100
AcDbLine
 10
28.34695353390405
 20
104.1852051308221
 30
0.0
 11
28.34695353390405
 21
111.3852051301714
 31
0.0
  0
LINE
  5
454
330
451
100
AcDbEntity
  8
1
  6
Continuous
 62
     7
100
AcDbLine
 10
49.34695353390407
 20
104.1852051308221
 30
0.0
 11
49.34695353390407
 21
111.3852051301714
 31
0.0
  0
SOLID
  5
455
330
451
100
AcDbEntity
  8
1
 62
     7
100
AcDbTrace
 10
29.84695353390405
 20
111.0826838765525
 30
0.0
 11
29.84695353390405
 21
110.6877263837903
 31
0.0
 12
28.34695353390405
 22
110.8852051301714
 32
0.0
 13
28.34695353390405
 23
110.8852051301714
 33
0.0
  0
SOLID
  5
456
330
451
100
AcDbEntity
  8
1
 62
     7
100
AcDbTrace
 10
47.84695353390407
 20
110.6877263837903
 30
0.0
 11
47.84695353390407
 21
111.0826838765525
 31
0.0
 12
49.34695353390407
 22
110.8852051301714
 32
0.0
 13
49.34695353390407
 23
110.8852051301714
 33
0.0
  0
MTEXT
  5
457
330
451
100
AcDbEntity
  8
1
 62
     7
100
AcDbMText
 10
37.94695353390406
 20
111.8852051301714
 30
0.0
 40
1.5
 41
0.0
 71
     7
 72
     1
  1
21
  7
CONVERTER_13
 11
0.9999999999970619
 21
2.424068405545306E-6
 31
0.0
 73
     1
 44
0.60024009603842
  0
ENDBLK
  5
459
330
451
100
AcDbEntity
  8
0
100
AcDbBlockEnd
  0
BLOCK
  5
463
330
45C
100
AcDbEntity
  8
0
100
AcDbBlockBegin
  2
*D3
 70
     1
 10
0.0
 20
0.0
 30
0.0
  3
*D3
  1

  0
LINE
  5
45D
330
45C
100
AcDbEntity
  8
1
  6
Continuous
 62
     7
100
AcDbLine
 10
72.3469538731222
 20
110.8852051301714
 30
0.0
 11
93.34695387312217
 21
110.8852051301714
 31
0.0
  0
LINE
  5
45E
330
45C
100
AcDbEntity
  8
1
  6
Continuous
 62
     7
100
AcDbLine
 10
72.3469538731222
 20
104.1852051308221
 30
0.0
 11
72.3469538731222
 21
111.3852051301714
 31
0.0
  0
LINE
  5
45F
330
45C
100
AcDbEntity
  8
1
  6
Continuous
 62
     7
100
AcDbLine
 10
93.34695387312217
 20
104.1852051308221
 30
0.0
 11
93.34695387312217
 21
111.3852051301714
 31
0.0
  0
SOLID
  5
460
330
45C
100
AcDbEntity
  8
1
 62
     7
100
AcDbTrace
 10
73.8469538731222
 20
111.0826838765525
 30
0.0
 11
73.8469538731222
 21
110.6877263837903
 31
0.0
 12
72.3469538731222
 22
110.8852051301714
 32
0.0
 13
72.3469538731222
 23
110.8852051301714
 33
0.0
  0
SOLID
  5
461
330
45C
100
AcDbEntity
  8
1
 62
     7
100
AcDbTrace
 10
91.84695387312217
 20
110.6877263837903
 30
0.0
 11
91.84695387312217
 21
111.0826838765525
 31
0.0
 12
93.34695387312217
 22
110.8852051301714
 32
0.0
 13
93.34695387312217
 23
110.8852051301714
 33
0.0
  0
MTEXT
  5
462
330
45C
100
AcDbEntity
  8
1
 62
     7
100
AcDbMText
 10
81.94695387312218
 20
111.8852051301714
 30
0.0
 40
1.5
 41
0.0
 71
     7
 72
     1
  1
21
  7
CONVERTER_13
 11
0.9999999999970619
 21
2.424068405545306E-6
 31
0.0
 73
     1
 44
0.60024009603842
  0
ENDBLK
  5
464
330
45C
100
AcDbEntity
  8
0
100
AcDbBlockEnd
  0
BLOCK
  5
46E
330
467
100
AcDbEntity
  8
0
100
AcDbBlockBegin
  2
*D4
 70
     1
 10
0.0
 20
0.0
 30
0.0
  3
*D4
  1

  0
LINE
  5
468
330
467
100
AcDbEntity
  8
1
  6
Continuous
 62
     7
100
AcDbLine
 10
20.5276019670328
 20
103.935205130822
 30
0.0
 11
20.5276019670328
 21
72.43520513082201
 31
0.0
  0
LINE
  5
469
330
467
100
AcDbEntity
  8
1
  6
Continuous
 62
     7
100
AcDbLine
 10
28.09695353390404
 20
103.935205130822
 30
0.0
 11
20.0276019670328
 21
103.935205130822
 31
0.0
  0
LINE
  5
46A
330
467
100
AcDbEntity
  8
1
  6
Continuous
 62
     7
100
AcDbLine
 10
28.09695353390407
 20
72.43520513082201
 30
0.0
 11
20.0276019670328
 21
72.43520513082201
 31
0.0
  0
SOLID
  5
46B
330
467
100
AcDbEntity
  8
1
 62
     7
100
AcDbTrace
 10
20.72508071341389
 20
102.435205130822
 30
0.0
 11
20.3301232206517
 21
102.435205130822
 31
0.0
 12
20.5276019670328
 22
103.935205130822
 32
0.0
 13
20.5276019670328
 23
103.935205130822
 33
0.0
  0
SOLID
  5
46C
330
467
100
AcDbEntity
  8
1
 62
     7
100
AcDbTrace
 10
20.3301232206517
 20
73.93520513082201
 30
0.0
 11
20.72508071341389
 21
73.93520513082201
 31
0.0
 12
20.5276019670328
 22
72.43520513082201
 32
0.0
 13
20.5276019670328
 23
72.43520513082201
 33
0.0
  0
MTEXT
  5
46D
330
467
100
AcDbEntity
  8
1
 62
     7
100
AcDbMText
 10
19.3776019670328
 20
86.347705130822
 30
0.0
 40
1.5
 41
0.0
 71
     7
 72
     1
  1
31,5
  7
CONVERTER_13
 11
0.0
 21
1.0
 31
0.0
 73
     1
 44
0.60024009603842
  0
ENDBLK
  5
46F
330
467
100
AcDbEntity
  8
0
100
AcDbBlockEnd
  0
ENDSEC
  0
SECTION
  2
ENTITIES
  0
INSERT
  5
4A
330
1F
100
AcDbEntity
  8
1
100
AcDbBlockReference
  2
_dummy_frame
 10
112.646953488526
 20
18.0784029349201
 30
0.0
  0
LINE
  5
4C
330
1F
100
AcDbEntity
  8
1
  6
Continuous
 62
     7
100
AcDbLine
 10
10.50000000000006
 20
10.0
 30
0.0
 11
102.5000000000001
 21
10.0
 31
0.0
  0
LINE
  5
4D
330
1F
100
AcDbEntity
  8
1
  6
Continuous
 62
     7
100
AcDbLine
 10
10.50000000000006
 20
2.49999999999994
 30
0.0
 11
102.5000000000001
 21
2.49999999999994
 31
0.0
  0
LINE
  5
4E
330
1F
100
AcDbEntity
  8
1
  6
Continuous
 62
     7
100
AcDbLine
 10
23.00000000000011
 20
17.5
 30
0.0
 11
23.00000000000011
 21
20.0
 31
0.0
  0
LINE
  5
4F
330
1F
100
AcDbEntity
  8
1
  6
Continuous
 62
     7
100
AcDbLine
 10
14.00000000000006
 20
17.5
 30
0.0
 11
14.00000000000006
 21
20.0
 31
0.0
  0
LINE
  5
50
330
1F
100
AcDbEntity
  8
1
  6
Continuous
 62
     7
100
AcDbLine
 10
10.50000000000006
 20
20.0
 30
0.0
 11
102.5000000000001
 21
20.0
 31
0.0
  0
LINE
  5
51
330
1F
100
AcDbEntity
  8
1
  6
Continuous
 62
     7
100
AcDbLine
 10
23.00000000000011
 20
15.0
 30
0.0
 11
23.00000000000011
 21
17.5
 31
0.0
  0
LINE
  5
52
330
1F
100
AcDbEntity
  8
1
  6
Continuous
 62
     7
100
AcDbLine
 10
14.00000000000006
 20
15.0
 30
0.0
 11
14.00000000000006
 21
17.5
 31
0.0
  0
LINE
  5
53
330
1F
100
AcDbEntity
  8
1
  6
Continuous
 62
     7
100
AcDbLine
 10
10.50000000000006
 20
17.5
 30
0.0
 11
102.5000000000001
 21
17.5
 31
0.0
  0
LINE
  5
54
330
1F
100
AcDbEntity
  8
1
  6
Continuous
 62
     7
100
AcDbLine
 10
23.00000000000011
 20
12.5
 30
0.0
 11
23.00000000000011
 21
15.0
 31
0.0
  0
LINE
  5
55
330
1F
100
AcDbEntity
  8
1
  6
Continuous
 62
     7
100
AcDbLine
 10
14.00000000000006
 20
12.5
 30
0.0
 11
14.00000000000006
 21
15.0
 31
0.0
  0
LINE
  5
56
330
1F
100
AcDbEntity
  8
1
  6
Continuous
 62
     7
100
AcDbLine
 10
10.50000000000006
 20
15.0
 30
0.0
 11
102.5000000000001
 21
15.0
 31
0.0
  0
LINE
  5
57
330
1F
100
AcDbEntity
  8
1
  6
Continuous
 62
     7
100
AcDbLine
 10
23.00000000000011
 20
10.0
 30
0.0
 11
23.00000000000011
 21
12.5
 31
0.0
  0
LINE
  5
58
330
1F
100
AcDbEntity
  8
1
  6
Continuous
 62
     7
100
AcDbLine
 10
14.00000000000006
 20
10.0
 30
0.0
 11
14.00000000000006
 21
12.5
 31
0.0
  0
LINE
  5
59
330
1F
100
AcDbEntity
  8
1
  6
Continuous
 62
     7
100
AcDbLine
 10
10.50000000000006
 20
12.5
 30
0.0
 11
102.5000000000001
 21
12.5
 31
0.0
  0
LINE
  5
5A
102
{ACAD_REACTORS
330
472
102
}
330
1F
100
AcDbEntity
  8
1
  6
Continuous
 62
     7
100
AcDbLine
 10
97.92143741995295
 20
5.27900104019017
 30
0.0
 11
97.25477075328635
 21
4.89438565557487
 31
0.0
  0
LINE
  5
5B
102
{ACAD_REACTORS
330
472
102
}
330
1F
100
AcDbEntity
  8
1
  6
Continuous
 62
     7
100
AcDbLine
 10
97.3381503443714
 20
5.32731826632397
 30
0.0
 11
97.7548632687898
 21
5.56772956887312
 31
0.0
  0
LINE
  5
5C
102
{ACAD_REACTORS
330
472
102
}
330
1F
100
AcDbEntity
  8
1
  6
Continuous
 62
     7
100
AcDbLine
 10
97.3381503443714
 20
6.08333333333332
 30
0.0
 11
97.3381503443714
 21
5.32731826632397
 31
0.0
  0
LINE
  5
5D
102
{ACAD_REACTORS
330
472
102
}
330
1F
100
AcDbEntity
  8
1
  6
Continuous
 62
     7
100
AcDbLine
 10
97.8381503443714
 20
6.08333333333332
 30
0.0
 11
97.3381503443714
 21
6.08333333333332
 31
0.0
  0
LINE
  5
5E
102
{ACAD_REACTORS
330
472
102
}
330
1F
100
AcDbEntity
  8
1
  6
Continuous
 62
     7
100
AcDbLine
 10
97.3381503443714
 20
6.41666666666663
 30
0.0
 11
97.8381503443714
 21
6.41666666666663
 31
0.0
  0
LINE
  5
5F
102
{ACAD_REACTORS
330
472
102
}
330
1F
100
AcDbEntity
  8
1
  6
Continuous
 62
     7
100
AcDbLine
 10
97.3381503443714
 20
7.17268173367597
 30
0.0
 11
97.3381503443714
 21
6.41666666666663
 31
0.0
  0
LINE
  5
60
102
{ACAD_REACTORS
330
472
102
}
330
1F
100
AcDbEntity
  8
1
  6
Continuous
 62
     7
100
AcDbLine
 10
97.7548632687898
 20
6.93227043112688
 30
0.0
 11
97.3381503443714
 21
7.17268173367597
 31
0.0
  0
LINE
  5
61
102
{ACAD_REACTORS
330
472
102
}
330
1F
100
AcDbEntity
  8
1
  6
Continuous
 62
     7
100
AcDbLine
 10
97.25477075328635
 20
7.60561434442513
 30
0.0
 11
97.92143741995295
 21
7.22099895980972
 31
0.0
  0
LINE
  5
62
102
{ACAD_REACTORS
330
473
102
}
330
1F
100
AcDbEntity
  8
1
  6
Continuous
 62
     7
100
AcDbLine
 10
93.6714836777047
 20
5.42336530453161
 30
0.0
 11
93.6714836777047
 21
7.07663469546833
 31
0.0
  0
LINE
  5
63
102
{ACAD_REACTORS
330
473
102
}
330
1F
100
AcDbEntity
  8
1
  6
Continuous
 62
     7
100
AcDbLine
 10
94.00481701103806
 20
5.51962595863165
 30
0.0
 11
94.00481701103806
 21
5.42336530453161
 31
0.0
  0
LINE
  5
64
102
{ACAD_REACTORS
330
473
102
}
330
1F
100
AcDbEntity
  8
1
  6
Continuous
 62
     7
100
AcDbLine
 10
94.00481701103806
 20
7.07663469546833
 30
0.0
 11
94.00481701103806
 21
5.51962595863165
 31
0.0
  0
LINE
  5
65
102
{ACAD_REACTORS
330
474
102
}
330
1F
100
AcDbEntity
  8
1
  6
Continuous
 62
     7
100
AcDbLine
 10
95.5881966021231
 20
4.2213087324979
 30
0.0
 11
94.50490952654155
 21
4.84628204533345
 31
0.0
  0
LINE
  5
66
102
{ACAD_REACTORS
330
474
102
}
330
1F
100
AcDbEntity
  8
1
  6
Continuous
 62
     7
100
AcDbLine
 10
94.6714836777047
 20
5.13501057401635
 30
0.0
 11
95.75477075328635
 21
4.5100372611808
 31
0.0
  0
LINE
  5
67
102
{ACAD_REACTORS
330
474
102
}
330
1F
100
AcDbEntity
  8
1
  6
Continuous
 62
     7
100
AcDbLine
 10
94.6714836777047
 20
7.46125008008369
 30
0.0
 11
94.6714836777047
 21
5.13501057401635
 31
0.0
  0
LINE
  5
68
102
{ACAD_REACTORS
330
474
102
}
330
1F
100
AcDbEntity
  8
1
  6
Continuous
 62
     7
100
AcDbLine
 10
94.3381503443714
 20
5.13501057401629
 30
0.0
 11
94.3381503443714
 21
7.46125008008369
 31
0.0
  0
LINE
  5
69
102
{ACAD_REACTORS
330
475
102
}
330
1F
100
AcDbEntity
  8
1
  6
Continuous
 62
     7
100
AcDbLine
 10
96.42426683589305
 20
7.93185020913614
 30
0.0
 11
95.8381503443714
 21
6.91666666666663
 31
0.0
  0
LINE
  5
6A
102
{ACAD_REACTORS
330
475
102
}
330
1F
100
AcDbEntity
  8
1
  6
Continuous
 62
     7
100
AcDbLine
 10
96.6714836777047
 20
4.6541345353009
 30
0.0
 11
96.6714836777047
 21
7.86560865601728
 31
0.0
  0
LINE
  5
6B
102
{ACAD_REACTORS
330
475
102
}
330
1F
100
AcDbEntity
  8
1
  6
Continuous
 62
     7
100
AcDbLine
 10
96.3381503443714
 20
6.25
 30
0.0
 11
96.3381503443714
 21
4.6541345353009
 31
0.0
  0
LINE
  5
6C
102
{ACAD_REACTORS
330
475
102
}
330
1F
100
AcDbEntity
  8
1
  6
Continuous
 62
     7
100
AcDbLine
 10
95.3381503443714
 20
5.42379253631645
 30
0.0
 11
95.3381503443714
 21
6.25
 31
0.0
  0
LINE
  5
6D
102
{ACAD_REACTORS
330
475
102
}
330
1F
100
AcDbEntity
  8
1
  6
Continuous
 62
     7
100
AcDbLine
 10
95.00481701103806
 20
6.25
 30
0.0
 11
95.00481701103806
 21
5.42379253631645
 31
0.0
  0
LINE
  5
6E
102
{ACAD_REACTORS
330
475
102
}
330
1F
100
AcDbEntity
  8
1
  6
Continuous
 62
     7
100
AcDbLine
 10
95.25203385284975
 20
7.93185020913614
 30
0.0
 11
95.8381503443714
 21
6.91666666666663
 31
0.0
  0
LINE
  5
6F
102
{ACAD_REACTORS
330
475
102
}
330
1F
100
AcDbEntity
  8
1
  6
Continuous
 62
     7
100
AcDbLine
 10
95.00481701103806
 20
6.25
 30
0.0
 11
95.00481701103806
 21
7.86560865601728
 31
0.0
  0
LINE
  5
70
330
1F
100
AcDbEntity
  8
1
  6
Continuous
 62
     7
100
AcDbLine
 10
95.8381503443714
 20
3.75
 30
0.0
 11
91.6299327068006
 21
6.17781786782928
 31
0.0
  0
LINE
  5
71
330
1F
100
AcDbEntity
  8
1
  6
Continuous
 62
     7
100
AcDbLine
 10
100.0463679819422
 20
6.17781786782928
 30
0.0
 11
95.8381503443714
 21
3.75
 31
0.0
  0
LINE
  5
72
330
1F
100
AcDbEntity
  8
1
  6
Continuous
 62
     7
100
AcDbLine
 10
95.8381503443714
 20
8.75
 30
0.0
 11
100.0463679819422
 21
6.32218213217067
 31
0.0
  0
LINE
  5
73
330
1F
100
AcDbEntity
  8
1
  6
Continuous
 62
     7
100
AcDbLine
 10
91.6299327068006
 20
6.32218213217067
 30
0.0
 11
95.8381503443714
 21
8.75
 31
0.0
  0
LINE
  5
74
102
{ACAD_REACTORS
330
475
102
}
330
1F
100
AcDbEntity
  8
1
  6
Continuous
 62
     7
100
AcDbLine
 10
95.3381503443714
 20
7.11602540378442
 30
0.0
 11
95.3381503443714
 21
6.25
 31
0.0
  0
LINE
  5
75
102
{ACAD_REACTORS
330
475
102
}
330
1F
100
AcDbEntity
  8
1
  6
Continuous
 62
     7
100
AcDbLine
 10
95.76598156072265
 20
6.375
 30
0.0
 11
95.3381503443714
 21
7.11602540378442
 31
0.0
  0
LINE
  5
76
102
{ACAD_REACTORS
330
475
102
}
330
1F
100
AcDbEntity
  8
1
  6
Continuous
 62
     7
100
AcDbLine
 10
96.3381503443714
 20
7.11602540378442
 30
0.0
 11
95.9103191280201
 21
6.375
 31
0.0
  0
LINE
  5
77
102
{ACAD_REACTORS
330
475
102
}
330
1F
100
AcDbEntity
  8
1
  6
Continuous
 62
     7
100
AcDbLine
 10
96.3381503443714
 20
6.25
 30
0.0
 11
96.3381503443714
 21
7.11602540378442
 31
0.0
  0
LINE
  5
78
102
{ACAD_REACTORS
330
472
102
}
330
1F
100
AcDbEntity
  8
1
  6
Continuous
 62
     7
100
AcDbLine
 10
97.0048170110381
 20
5.03874991991631
 30
0.0
 11
97.0048170110381
 21
7.46125008008369
 31
0.0
  0
LINE
  5
79
330
1F
100
AcDbEntity
  8
1
  6
Continuous
 62
     7
100
AcDbLine
 10
10.50000000000006
 20
146.0000000000001
 30
0.0
 11
10.50000000000006
 21
2.49999999999994
 31
0.0
  0
LINE
  5
7A
330
1F
100
AcDbEntity
  8
1
  6
Continuous
 62
     7
100
AcDbLine
 10
102.5000000000001
 20
146.0000000000001
 30
0.0
 11
10.50000000000006
 21
146.0000000000001
 31
0.0
  0
LINE
  5
7B
330
1F
100
AcDbEntity
  8
1
  6
Continuous
 62
     7
100
AcDbLine
 10
102.5000000000001
 20
2.49999999999994
 30
0.0
 11
102.5000000000001
 21
146.0000000000001
 31
0.0
  0
LINE
  5
7C
330
1F
100
AcDbEntity
  8
1
  6
Continuous
 62
     7
100
AcDbLine
 10
105.0000000000001
 20
148.5000000000001
 30
0.0
 11
0.0
 21
148.4999999999998
 31
0.0
  0
LINE
  5
7D
330
1F
100
AcDbEntity
  8
1
  6
Continuous
 62
     7
100
AcDbLine
 10
0.0
 20
148.4999999999998
 30
0.0
 11
0.0
 21
0.0
 31
0.0
  0
LINE
  5
7E
330
1F
100
AcDbEntity
  8
1
  6
Continuous
 62
     7
100
AcDbLine
 10
0.0
 20
0.0
 30
0.0
 11
105.0000000000001
 21
0.0
 31
0.0
  0
LINE
  5
7F
330
1F
100
AcDbEntity
  8
1
  6
Continuous
 62
     7
100
AcDbLine
 10
105.0000000000001
 20
0.0
 30
0.0
 11
105.0000000000001
 21
148.5000000000001
 31
0.0
  0
LINE
  5
80
330
1F
100
AcDbEntity
  8
1
  6
Continuous
 62
     7
100
AcDbLine
 10
0.0
 20
74.2499999999999
 30
0.0
 11
7.5
 21
74.2499999999999
 31
0.0
  0
LINE
  5
81
330
1F
100
AcDbEntity
  8
1
  6
Continuous
 62
     7
100
AcDbLine
 10
10.50000000000006
 20
4.99999999999993
 30
0.0
 11
25.50000000000005
 21
4.99999999999993
 31
0.0
  0
LINE
  5
82
330
1F
100
AcDbEntity
  8
1
  6
Continuous
 62
     7
100
AcDbLine
 10
25.50000000000005
 20
10.0
 30
0.0
 11
25.50000000000005
 21
2.5
 31
0.0
  0
LINE
  5
83
330
1F
100
AcDbEntity
  8
1
  6
Continuous
 62
     7
100
AcDbLine
 10
89.17630068874276
 20
10.0
 30
0.0
 11
89.17630068874276
 21
2.5
 31
0.0
  0
LINE
  5
84
330
1F
100
AcDbEntity
  8
1
  6
Continuous
 62
     7
100
AcDbLine
 10
80.50000000000006
 20
10.0
 30
0.0
 11
80.50000000000006
 21
2.5
 31
0.0
  0
LINE
  5
85
330
1F
100
AcDbEntity
  8
1
  6
Continuous
 62
     7
100
AcDbLine
 10
10.50000000000006
 20
10.0
 30
0.0
 11
10.50000000000006
 21
2.49999999999994
 31
0.0
  0
LINE
  5
86
330
1F
100
AcDbEntity
  8
1
  6
Continuous
 62
     7
100
AcDbLine
 10
10.50000000000006
 20
7.49999999999994
 30
0.0
 11
25.50000000000005
 21
7.49999999999994
 31
0.0
  0
LINE
  5
87
330
1F
100
AcDbEntity
  8
1
  6
Continuous
 62
     7
100
AcDbLine
 10
52.78830080438587
 20
4.20051792171099
 30
0.0
 11
53.78880922954897
 21
4.20051792171099
 31
0.0
  0
LINE
  5
88
330
1F
100
AcDbEntity
  8
1
  6
Continuous
 62
     7
100
AcDbLine
 10
52.78830080438587
 20
5.13608019125027
 30
0.0
 11
52.78830080438587
 21
4.20051792171099
 31
0.0
  0
LINE
  5
89
330
1F
100
AcDbEntity
  8
1
  6
Continuous
 62
     7
100
AcDbLine
 10
52.49543416752101
 20
3.32230028700066
 30
0.0
 11
53.0862351217807
 21
3.32230028700066
 31
0.0
  0
LINE
  5
8A
330
1F
100
AcDbEntity
  8
1
  6
Continuous
 62
     7
100
AcDbLine
 10
52.14414711363686
 20
3.7614091043558
 30
0.0
 11
53.43752217566481
 21
3.7614091043558
 31
0.0
  0
LINE
  5
8B
330
1F
100
AcDbEntity
  8
1
  6
Continuous
 62
     7
100
AcDbLine
 10
51.79286005975274
 20
4.20051792171099
 30
0.0
 11
52.78830080438587
 21
4.20051792171099
 31
0.0
  0
LINE
  5
8C
330
1F
100
AcDbEntity
  8
0
  6
Continuous
 62
     7
100
AcDbLine
 10
94.52561180583263
 20
86.54500831206524
 30
0.0
 11
94.52561180583263
 21
87.21009385363918
 31
0.0
  0
LINE
  5
8D
330
1F
100
AcDbEntity
  8
0
  6
Continuous
 62
     7
100
AcDbLine
 10
95.49124504312721
 20
90.60193131977981
 30
0.0
 11
95.36581105163151
 21
90.60193131977981
 31
0.0
  0
LINE
  5
8E
330
1F
100
AcDbEntity
  8
0
  6
Continuous
 62
     7
100
AcDbLine
 10
95.49124504312726
 20
88.26847894186425
 30
0.0
 11
95.24312346645502
 21
88.26847894186425
 31
0.0
  0
LINE
  5
8F
330
1F
100
AcDbEntity
  8
0
  6
Continuous
 62
     7
100
AcDbLine
 10
95.58917578555725
 20
90.23934013082201
 30
0.0
 11
95.41721709657895
 21
90.23934013082201
 31
0.0
  0
LINE
  5
90
330
1F
100
AcDbEntity
  8
0
  6
Continuous
 62
     7
100
AcDbLine
 10
95.58917578555725
 20
88.63107013082201
 30
0.0
 11
95.41721709657895
 21
88.63107013082201
 31
0.0
  0
LINE
  5
91
330
1F
100
AcDbEntity
  8
0
  6
Continuous
 62
     7
100
AcDbLine
 10
94.89695387312224
 20
87.19277062412084
 30
0.0
 11
94.718566922803
 21
87.19277062412084
 31
0.0
  0
LINE
  5
92
330
1F
100
AcDbEntity
  8
0
  6
Continuous
 62
     7
100
AcDbLine
 10
94.89695387312224
 20
87.75845604907006
 30
0.0
 11
94.718566922803
 21
87.75845604907006
 31
0.0
  0
LINE
  5
93
330
1F
100
AcDbEntity
  8
0
  6
Continuous
 62
     7
100
AcDbLine
 10
94.89695387312224
 20
92.235205130822
 30
0.0
 11
94.54695387312222
 21
92.235205130822
 31
0.0
  0
LINE
  5
94
330
1F
100
AcDbEntity
  8
0
  6
Continuous
 62
     7
100
AcDbLine
 10
94.89695387312224
 20
87.75845604907006
 30
0.0
 11
94.89695387312224
 21
92.235205130822
 31
0.0
  0
LINE
  5
95
330
1F
100
AcDbEntity
  8
0
  6
Continuous
 62
     7
100
AcDbLine
 10
94.718566922803
 20
87.19277062412084
 30
0.0
 11
94.718566922803
 21
87.75845604907006
 31
0.0
  0
LINE
  5
96
330
1F
100
AcDbEntity
  8
0
  6
Continuous
 62
     7
100
AcDbLine
 10
94.89695387312224
 20
86.63520513082202
 30
0.0
 11
94.54695387312222
 21
86.63520513082202
 31
0.0
  0
LINE
  5
97
330
1F
100
AcDbEntity
  8
0
  6
Continuous
 62
     7
100
AcDbLine
 10
94.89695387312224
 20
86.63520513082202
 30
0.0
 11
94.89695387312224
 21
87.19277062412084
 31
0.0
  0
LINE
  5
98
330
1F
100
AcDbEntity
  8
0
  6
Continuous
 62
     7
100
AcDbLine
 10
94.52561180583263
 20
86.6565471981116
 30
0.0
 11
94.54695387312222
 21
86.63520513082202
 31
0.0
  0
LINE
  5
99
330
1F
100
AcDbEntity
  8
0
  6
Continuous
 62
     7
100
AcDbLine
 10
94.52561180583263
 20
92.21386306353241
 30
0.0
 11
94.54695387312222
 21
92.235205130822
 31
0.0
  0
LINE
  5
9A
330
1F
100
AcDbEntity
  8
0
  6
Continuous
 62
     7
100
AcDbLine
 10
94.54695387312222
 20
92.235205130822
 30
0.0
 11
94.54695387312222
 21
86.63520513082202
 31
0.0
  0
LINE
  5
9B
330
1F
100
AcDbEntity
  8
0
  6
Continuous
 62
     7
100
AcDbLine
 10
94.52561180583263
 20
87.21009385363918
 30
0.0
 11
94.52561180583263
 21
87.29625310886148
 31
0.0
  0
LINE
  5
9C
330
1F
100
AcDbEntity
  8
0
  6
Continuous
 62
     7
100
AcDbLine
 10
93.34695387312217
 20
87.71386306353243
 30
0.0
 11
93.82561180583264
 21
87.23520513082201
 31
0.0
  0
LINE
  5
9D
330
1F
100
AcDbEntity
  8
0
  6
Continuous
 62
     7
100
AcDbLine
 10
93.82561180579467
 20
87.24814371166718
 30
0.0
 11
93.82561180583264
 21
87.23520513082201
 31
0.0
  0
LINE
  5
9E
330
1F
100
AcDbEntity
  8
0
  6
Continuous
 62
     7
100
AcDbLine
 10
94.52561180583263
 20
87.562630394393
 30
0.0
 11
94.52561180583263
 21
89.18520513082201
 31
0.0
  0
LINE
  5
9F
330
1F
100
AcDbEntity
  8
0
  6
Continuous
 62
     7
100
AcDbLine
 10
94.52561180583263
 20
91.66031640800485
 30
0.0
 11
94.52561180583263
 21
92.21386306353241
 31
0.0
  0
LINE
  5
A0
330
1F
100
AcDbEntity
  8
0
  6
Continuous
 62
     7
100
AcDbLine
 10
94.52561180583263
 20
92.21386306353241
 30
0.0
 11
94.52561180583263
 21
92.3254019495788
 31
0.0
  0
LINE
  5
A1
330
1F
100
AcDbEntity
  8
0
  6
Continuous
 62
     7
100
AcDbLine
 10
94.52561180583263
 20
89.68520513082201
 30
0.0
 11
94.52561180583263
 21
91.30777986725101
 31
0.0
  0
LINE
  5
A2
330
1F
100
AcDbEntity
  8
0
  6
Continuous
 62
     7
100
AcDbLine
 10
94.52561180583263
 20
89.68520513082201
 30
0.0
 11
93.82561180583264
 21
89.68520513082201
 31
0.0
  0
LINE
  5
A3
330
1F
100
AcDbEntity
  8
0
  6
Continuous
 62
     7
100
AcDbLine
 10
94.52561180583263
 20
91.57415715278253
 30
0.0
 11
94.52561180583263
 21
91.66031640800485
 31
0.0
  0
LINE
  5
A4
330
1F
100
AcDbEntity
  8
0
  6
Continuous
 62
     7
100
AcDbLine
 10
93.82561180583264
 20
91.63520513082202
 30
0.0
 11
93.82561180579467
 21
91.62226654997683
 31
0.0
  0
LINE
  5
A5
330
1F
100
AcDbEntity
  8
0
  6
Continuous
 62
     7
100
AcDbLine
 10
93.82561180578398
 20
91.1627323545625
 30
0.0
 11
93.82561180581246
 21
91.0762976612421
 31
0.0
  0
LINE
  5
A6
330
1F
100
AcDbEntity
  8
0
  6
Continuous
 62
     7
100
AcDbLine
 10
93.34695387312217
 20
91.15654719811158
 30
0.0
 11
93.82561180583264
 21
91.63520513082202
 31
0.0
  0
LINE
  5
A7
330
1F
100
AcDbEntity
  8
0
  6
Continuous
 62
     7
100
AcDbLine
 10
93.82561180581246
 20
91.0762976612421
 30
0.0
 11
93.82561180583264
 21
90.81052307783902
 31
0.0
  0
LINE
  5
A8
330
1F
100
AcDbEntity
  8
0
  6
Continuous
 62
     7
100
AcDbLine
 10
93.82561180583264
 20
89.68520513082201
 30
0.0
 11
93.82561180583264
 21
89.18520513082201
 31
0.0
  0
LINE
  5
A9
330
1F
100
AcDbEntity
  8
0
  6
Continuous
 62
     7
100
AcDbLine
 10
93.82561180583264
 20
89.18520513082201
 30
0.0
 11
94.52561180583263
 21
89.18520513082201
 31
0.0
  0
LINE
  5
AA
330
1F
100
AcDbEntity
  8
0
  6
Continuous
 62
     7
100
AcDbLine
 10
93.82561180583264
 20
88.059887183805
 30
0.0
 11
93.82561180581246
 21
87.79411260040193
 31
0.0
  0
LINE
  5
AB
330
1F
100
AcDbEntity
  8
0
  6
Continuous
 62
     7
100
AcDbLine
 10
93.82561180581246
 20
87.79411260040193
 30
0.0
 11
93.82561180578398
 21
87.70767790708153
 31
0.0
  0
LINE
  5
AC
330
1F
100
AcDbEntity
  8
0
  6
Continuous
 62
     7
100
AcDbLine
 10
87.34695387312223
 20
89.13520513082203
 30
0.0
 11
84.34695387312223
 21
89.13520513082203
 31
0.0
  0
LINE
  5
AD
330
1F
100
AcDbEntity
  8
0
  6
Continuous
 62
     7
100
AcDbLine
 10
78.34695387312223
 20
89.13520513082203
 30
0.0
 11
81.34695387312223
 21
89.13520513082203
 31
0.0
  0
LINE
  5
AE
330
1F
100
AcDbEntity
  8
0
  6
Continuous
 62
     7
100
AcDbLine
 10
78.59695387312217
 20
89.43520513082201
 30
0.0
 11
78.59695387312217
 21
101.4352051308231
 31
0.0
  0
LINE
  5
AF
330
1F
100
AcDbEntity
  8
0
  6
Continuous
 62
     7
100
AcDbLine
 10
81.34695387312217
 20
92.535205130822
 30
0.0
 11
84.34695387312217
 21
92.535205130822
 31
0.0
  0
LINE
  5
B0
330
1F
100
AcDbEntity
  8
0
  6
Continuous
 62
     7
100
AcDbLine
 10
78.59695387312217
 20
89.43520513082201
 30
0.0
 11
87.0969538731222
 21
89.43520513082201
 31
0.0
  0
LINE
  5
B1
330
1F
100
AcDbEntity
  8
0
  6
Continuous
 62
     7
100
AcDbLine
 10
84.4469538731222
 20
92.43520513082201
 30
0.0
 11
81.24695387312221
 21
92.43520513082201
 31
0.0
  0
LINE
  5
B2
330
1F
100
AcDbEntity
  8
0
  6
Continuous
 62
     7
100
AcDbLine
 10
72.3469538731222
 20
78.43520513082201
 30
0.0
 11
72.3469538731222
 21
103.935205130822
 31
0.0
  0
LINE
  5
B3
330
1F
100
AcDbEntity
  8
0
  6
Continuous
 62
     7
100
AcDbLine
 10
72.3469538731222
 20
103.935205130822
 30
0.0
 11
75.3469538731222
 21
103.935205130822
 31
0.0
  0
LINE
  5
B4
330
1F
100
AcDbEntity
  8
0
  6
Continuous
 62
     7
100
AcDbLine
 10
78.34695387312223
 20
89.13520513082203
 30
0.0
 11
78.34695387312223
 21
78.43520513082201
 31
0.0
  0
LINE
  5
B5
330
1F
100
AcDbEntity
  8
0
  6
Continuous
 62
     7
100
AcDbLine
 10
78.34695387312223
 20
101.435205130822
 30
0.0
 11
78.34695387312223
 21
89.13520513082203
 31
0.0
  0
LINE
  5
B6
330
1F
100
AcDbEntity
  8
0
  6
Continuous
 62
     7
100
AcDbLine
 10
81.24695387312221
 20
103.935205130822
 30
0.0
 11
81.24695387312221
 21
101.435205130822
 31
0.0
  0
LINE
  5
B7
330
1F
100
AcDbEntity
  8
0
  6
Continuous
 62
     7
100
AcDbLine
 10
81.34695387312217
 20
101.435205130822
 30
0.0
 11
81.24695387312221
 21
101.435205130822
 31
0.0
  0
LINE
  5
B8
330
1F
100
AcDbEntity
  8
0
  6
Continuous
 62
     7
100
AcDbLine
 10
81.34695387312217
 20
92.535205130822
 30
0.0
 11
81.34695387312217
 21
101.435205130822
 31
0.0
  0
LINE
  5
B9
330
1F
100
AcDbEntity
  8
0
  6
Continuous
 62
     7
100
AcDbLine
 10
81.24695387312221
 20
101.435205130822
 30
0.0
 11
81.24695387312221
 21
92.43520513082201
 31
0.0
  0
LINE
  5
BA
330
1F
100
AcDbEntity
  8
0
  6
Continuous
 62
     7
100
AcDbLine
 10
81.34695387312223
 20
89.13520513082203
 30
0.0
 11
81.34695387312223
 21
78.43520513082204
 31
0.0
  0
LINE
  5
BB
330
1F
100
AcDbEntity
  8
0
  6
Continuous
 62
     7
100
AcDbLine
 10
72.3469538731222
 20
78.43520513082201
 30
0.0
 11
70.84695387312217
 21
78.43520513082201
 31
0.0
  0
LINE
  5
BC
330
1F
100
AcDbEntity
  8
0
  6
Continuous
 62
     7
100
AcDbLine
 10
70.84695387312217
 20
78.43520513082201
 30
0.0
 11
70.84695387312217
 21
76.13520513082203
 31
0.0
  0
LINE
  5
BD
330
1F
100
AcDbEntity
  8
0
  6
Continuous
 62
     7
100
AcDbLine
 10
72.34695387312223
 20
76.13520513082203
 30
0.0
 11
70.84695387312217
 21
76.13520513082203
 31
0.0
  0
LINE
  5
BE
330
1F
100
AcDbEntity
  8
0
  6
Continuous
 62
     7
100
AcDbLine
 10
74.84695387312217
 20
78.43520513082201
 30
0.0
 11
72.3469538731222
 21
78.43520513082201
 31
0.0
  0
LINE
  5
BF
330
1F
100
AcDbEntity
  8
0
  6
Continuous
 62
     7
100
AcDbLine
 10
82.01515192465615
 20
103.935205130822
 30
0.0
 11
82.01515192465615
 21
104.435205130822
 31
0.0
  0
LINE
  5
C0
330
1F
100
AcDbEntity
  8
0
  6
Continuous
 62
     7
100
AcDbLine
 10
86.77384588951134
 20
103.935205130822
 30
0.0
 11
86.77384588951134
 21
104.435205130822
 31
0.0
  0
LINE
  5
C1
330
1F
100
AcDbEntity
  8
0
  6
Continuous
 62
     7
100
AcDbLine
 10
83.16784470739364
 20
104.435205130822
 30
0.0
 11
85.76784470739364
 21
104.435205130822
 31
0.0
  0
LINE
  5
C2
330
1F
100
AcDbEntity
  8
0
  6
Continuous
 62
     7
100
AcDbLine
 10
91.97384588951138
 20
103.935205130822
 30
0.0
 11
91.97384588951138
 21
104.435205130822
 31
0.0
  0
LINE
  5
C3
330
1F
100
AcDbEntity
  8
0
  6
Continuous
 62
     7
100
AcDbLine
 10
86.77384588951134
 20
104.435205130822
 30
0.0
 11
89.37384588951136
 21
104.435205130822
 31
0.0
  0
LINE
  5
C4
330
1F
100
AcDbEntity
  8
0
  6
Continuous
 62
     7
100
AcDbLine
 10
85.76784470739364
 20
104.435205130822
 30
0.0
 11
86.77384588951134
 21
104.435205130822
 31
0.0
  0
LINE
  5
C5
330
1F
100
AcDbEntity
  8
0
  6
Continuous
 62
     7
100
AcDbLine
 10
89.37384588951136
 20
104.435205130822
 30
0.0
 11
91.97384588951138
 21
104.435205130822
 31
0.0
  0
LINE
  5
C6
330
1F
100
AcDbEntity
  8
0
  6
Continuous
 62
     7
100
AcDbLine
 10
83.16784470739364
 20
103.935205130822
 30
0.0
 11
83.16784470739364
 21
104.435205130822
 31
0.0
  0
LINE
  5
C7
330
1F
100
AcDbEntity
  8
0
  6
Continuous
 62
     7
100
AcDbLine
 10
76.8151519246561
 20
103.935205130822
 30
0.0
 11
76.8151519246561
 21
104.435205130822
 31
0.0
  0
LINE
  5
C8
330
1F
100
AcDbEntity
  8
0
  6
Continuous
 62
     7
100
AcDbLine
 10
91.97384588951138
 20
103.935205130822
 30
0.0
 11
93.34695387312217
 21
103.935205130822
 31
0.0
  0
LINE
  5
C9
330
1F
100
AcDbEntity
  8
0
  6
Continuous
 62
     7
100
AcDbLine
 10
84.4469538731222
 20
103.935205130822
 30
0.0
 11
83.16784470739364
 21
103.935205130822
 31
0.0
  0
LINE
  5
CA
330
1F
100
AcDbEntity
  8
0
  6
Continuous
 62
     7
100
AcDbLine
 10
83.16784470739364
 20
103.935205130822
 30
0.0
 11
82.01515192465615
 21
103.935205130822
 31
0.0
  0
LINE
  5
CB
330
1F
100
AcDbEntity
  8
0
  6
Continuous
 62
     7
100
AcDbLine
 10
82.01515192465615
 20
103.935205130822
 30
0.0
 11
81.24695387312221
 21
103.935205130822
 31
0.0
  0
LINE
  5
CC
330
1F
100
AcDbEntity
  8
0
  6
Continuous
 62
     7
100
AcDbLine
 10
81.24695387312221
 20
103.935205130822
 30
0.0
 11
76.8151519246561
 21
103.935205130822
 31
0.0
  0
LINE
  5
CD
330
1F
100
AcDbEntity
  8
0
  6
Continuous
 62
     7
100
AcDbLine
 10
76.8151519246561
 20
103.935205130822
 30
0.0
 11
75.3469538731222
 21
103.935205130822
 31
0.0
  0
LINE
  5
CE
330
1F
100
AcDbEntity
  8
0
  6
Continuous
 62
     7
100
AcDbLine
 10
84.4469538731222
 20
103.935205130822
 30
0.0
 11
86.77384588951134
 21
103.935205130822
 31
0.0
  0
LINE
  5
CF
330
1F
100
AcDbEntity
  8
0
  6
Continuous
 62
     7
100
AcDbLine
 10
86.77384588951134
 20
103.935205130822
 30
0.0
 11
90.34695387312217
 21
103.935205130822
 31
0.0
  0
LINE
  5
D0
330
1F
100
AcDbEntity
  8
0
  6
Continuous
 62
     7
100
AcDbLine
 10
84.34695387312217
 20
101.435205130822
 30
0.0
 11
81.34695387312217
 21
101.435205130822
 31
0.0
  0
LINE
  5
D1
330
1F
100
AcDbEntity
  8
0
  6
Continuous
 62
     7
100
AcDbLine
 10
78.59695387312217
 20
101.4352051308231
 30
0.0
 11
78.34695387312223
 21
101.435205130822
 31
0.0
  0
LINE
  5
D2
330
1F
100
AcDbEntity
  8
0
  6
Continuous
 62
     7
100
AcDbLine
 10
87.34695387312223
 20
101.4352051308231
 30
0.0
 11
87.0969538731222
 21
101.4352051308231
 31
0.0
  0
LINE
  5
D3
330
1F
100
AcDbEntity
  8
0
  6
Continuous
 62
     7
100
AcDbLine
 10
76.8151519246561
 20
104.435205130822
 30
0.0
 11
79.41515192465613
 21
104.435205130822
 31
0.0
  0
LINE
  5
D4
330
1F
100
AcDbEntity
  8
0
  6
Continuous
 62
     7
100
AcDbLine
 10
79.41515192465613
 20
104.435205130822
 30
0.0
 11
82.01515192465615
 21
104.435205130822
 31
0.0
  0
LINE
  5
D5
330
1F
100
AcDbEntity
  8
0
  6
Continuous
 62
     7
100
AcDbLine
 10
94.84695387312223
 20
78.43520513082201
 30
0.0
 11
93.34695387312217
 21
78.43520513082201
 31
0.0
  0
LINE
  5
D6
330
1F
100
AcDbEntity
  8
0
  6
Continuous
 62
     7
100
AcDbLine
 10
93.34695387312217
 20
78.43520513082201
 30
0.0
 11
90.84695387312223
 21
78.43520513082201
 31
0.0
  0
LINE
  5
D7
330
1F
100
AcDbEntity
  8
0
  6
Continuous
 62
     7
100
AcDbLine
 10
87.34695387312223
 20
78.43520513082201
 30
0.0
 11
84.34695387312223
 21
78.43520513082204
 31
0.0
  0
LINE
  5
D8
330
1F
100
AcDbEntity
  8
0
  6
Continuous
 62
     7
100
AcDbLine
 10
94.84695387312223
 20
76.13520513082203
 30
0.0
 11
93.34695387312223
 21
76.13520513082203
 31
0.0
  0
LINE
  5
D9
330
1F
100
AcDbEntity
  8
0
  6
Continuous
 62
     7
100
AcDbLine
 10
94.84695387312223
 20
78.43520513082201
 30
0.0
 11
94.84695387312223
 21
76.13520513082203
 31
0.0
  0
LINE
  5
DA
330
1F
100
AcDbEntity
  8
0
  6
Continuous
 62
     7
100
AcDbLine
 10
92.59695387312223
 20
72.43520513082201
 30
0.0
 11
92.59695387312223
 21
76.13520513082203
 31
0.0
  0
LINE
  5
DB
330
1F
100
AcDbEntity
  8
0
  6
Continuous
 62
     7
100
AcDbLine
 10
87.34695387312223
 20
76.13520513082203
 30
0.0
 11
84.34695387312223
 21
76.13520513082203
 31
0.0
  0
LINE
  5
DC
330
1F
100
AcDbEntity
  8
0
  6
Continuous
 62
     7
100
AcDbLine
 10
92.59695387312223
 20
76.13520513082203
 30
0.0
 11
90.8469538731222
 21
76.13520513082203
 31
0.0
  0
LINE
  5
DD
330
1F
100
AcDbEntity
  8
0
  6
Continuous
 62
     7
100
AcDbLine
 10
93.34695387312223
 20
76.13520513082203
 30
0.0
 11
92.59695387312223
 21
76.13520513082203
 31
0.0
  0
LINE
  5
DE
330
1F
100
AcDbEntity
  8
0
  6
Continuous
 62
     7
100
AcDbLine
 10
93.34695387312223
 20
72.43520513082201
 30
0.0
 11
93.34695387312223
 21
76.13520513082203
 31
0.0
  0
LINE
  5
DF
330
1F
100
AcDbEntity
  8
0
  6
Continuous
 62
     7
100
AcDbLine
 10
93.34695387312223
 20
72.43520513082201
 30
0.0
 11
92.59695387312223
 21
72.43520513082201
 31
0.0
  0
LINE
  5
E0
330
1F
100
AcDbEntity
  8
0
  6
Continuous
 62
     7
100
AcDbLine
 10
87.34695387312223
 20
72.43520513082201
 30
0.0
 11
84.34695387312223
 21
72.43520513082201
 31
0.0
  0
LINE
  5
E1
330
1F
100
AcDbEntity
  8
0
  6
Continuous
 62
     7
100
AcDbLine
 10
90.34695387312223
 20
72.43520513082201
 30
0.0
 11
92.59695387312223
 21
72.43520513082201
 31
0.0
  0
LINE
  5
E2
330
1F
100
AcDbEntity
  8
0
  6
Continuous
 62
     7
100
AcDbLine
 10
84.4469538731222
 20
101.435205130822
 30
0.0
 11
84.4469538731222
 21
103.935205130822
 31
0.0
  0
LINE
  5
E3
330
1F
100
AcDbEntity
  8
0
  6
Continuous
 62
     7
100
AcDbLine
 10
84.4469538731222
 20
92.43520513082201
 30
0.0
 11
84.4469538731222
 21
101.435205130822
 31
0.0
  0
LINE
  5
E4
330
1F
100
AcDbEntity
  8
0
  6
Continuous
 62
     7
100
AcDbLine
 10
84.4469538731222
 20
101.435205130822
 30
0.0
 11
84.34695387312217
 21
101.435205130822
 31
0.0
  0
LINE
  5
E5
330
1F
100
AcDbEntity
  8
0
  6
Continuous
 62
     7
100
AcDbLine
 10
87.0969538731222
 20
101.4352051308231
 30
0.0
 11
87.0969538731222
 21
89.43520513082201
 31
0.0
  0
LINE
  5
E6
330
1F
100
AcDbEntity
  8
0
  6
Continuous
 62
     7
100
AcDbLine
 10
84.34695387312223
 20
76.13520513082203
 30
0.0
 11
84.34695387312223
 21
72.43520513082201
 31
0.0
  0
LINE
  5
E7
330
1F
100
AcDbEntity
  8
0
  6
Continuous
 62
     7
100
AcDbLine
 10
84.34695387312217
 20
92.535205130822
 30
0.0
 11
84.34695387312217
 21
101.435205130822
 31
0.0
  0
LINE
  5
E8
330
1F
100
AcDbEntity
  8
0
  6
Continuous
 62
     7
100
AcDbLine
 10
84.34695387312223
 20
78.43520513082204
 30
0.0
 11
84.34695387312223
 21
89.13520513082203
 31
0.0
  0
LINE
  5
E9
330
1F
100
AcDbEntity
  8
0
  6
Continuous
 62
     7
100
AcDbLine
 10
84.34695387312223
 20
78.43520513082204
 30
0.0
 11
81.34695387312223
 21
78.43520513082204
 31
0.0
  0
LINE
  5
EA
330
1F
100
AcDbEntity
  8
0
  6
Continuous
 62
     7
100
AcDbLine
 10
81.34695387312223
 20
78.43520513082204
 30
0.0
 11
78.34695387312223
 21
78.43520513082201
 31
0.0
  0
LINE
  5
EB
330
1F
100
AcDbEntity
  8
0
  6
Continuous
 62
     7
100
AcDbLine
 10
81.34695387312223
 20
76.13520513082203
 30
0.0
 11
78.34695387312223
 21
76.13520513082203
 31
0.0
  0
LINE
  5
EC
330
1F
100
AcDbEntity
  8
0
  6
Continuous
 62
     7
100
AcDbLine
 10
81.34695387312223
 20
72.43520513082201
 30
0.0
 11
81.34695387312223
 21
76.13520513082203
 31
0.0
  0
LINE
  5
ED
330
1F
100
AcDbEntity
  8
0
  6
Continuous
 62
     7
100
AcDbLine
 10
78.34695387312223
 20
76.13520513082203
 30
0.0
 11
74.84695387312217
 21
76.13520513082203
 31
0.0
  0
LINE
  5
EE
330
1F
100
AcDbEntity
  8
0
  6
Continuous
 62
     7
100
AcDbLine
 10
73.09695387312223
 20
72.43520513082201
 30
0.0
 11
75.34695387312223
 21
72.43520513082201
 31
0.0
  0
LINE
  5
EF
330
1F
100
AcDbEntity
  8
0
  6
Continuous
 62
     7
100
AcDbLine
 10
73.09695387312223
 20
72.43520513082201
 30
0.0
 11
73.09695387312223
 21
76.13520513082203
 31
0.0
  0
LINE
  5
F0
330
1F
100
AcDbEntity
  8
0
  6
Continuous
 62
     7
100
AcDbLine
 10
72.34695387312223
 20
72.43520513082201
 30
0.0
 11
72.34695387312223
 21
76.13520513082203
 31
0.0
  0
LINE
  5
F1
330
1F
100
AcDbEntity
  8
0
  6
Continuous
 62
     7
100
AcDbLine
 10
78.34695387312223
 20
72.43520513082201
 30
0.0
 11
78.34695387312223
 21
76.13520513082203
 31
0.0
  0
LINE
  5
F2
330
1F
100
AcDbEntity
  8
0
  6
Continuous
 62
     7
100
AcDbLine
 10
78.34695387312223
 20
78.43520513082201
 30
0.0
 11
74.84695387312217
 21
78.43520513082201
 31
0.0
  0
LINE
  5
F3
330
1F
100
AcDbEntity
  8
0
  6
Continuous
 62
     7
100
AcDbLine
 10
84.34695387312223
 20
76.13520513082203
 30
0.0
 11
81.34695387312223
 21
76.13520513082203
 31
0.0
  0
LINE
  5
F4
330
1F
100
AcDbEntity
  8
0
  6
Continuous
 62
     7
100
AcDbLine
 10
74.84695387312217
 20
76.13520513082203
 30
0.0
 11
73.09695387312223
 21
76.13520513082203
 31
0.0
  0
LINE
  5
F5
330
1F
100
AcDbEntity
  8
0
  6
Continuous
 62
     7
100
AcDbLine
 10
73.09695387312223
 20
76.13520513082203
 30
0.0
 11
72.34695387312223
 21
76.13520513082203
 31
0.0
  0
LINE
  5
F6
330
1F
100
AcDbEntity
  8
0
  6
Continuous
 62
     7
100
AcDbLine
 10
81.34695387312223
 20
72.43520513082201
 30
0.0
 11
84.34695387312223
 21
72.43520513082201
 31
0.0
  0
LINE
  5
F7
330
1F
100
AcDbEntity
  8
0
  6
Continuous
 62
     7
100
AcDbLine
 10
73.09695387312223
 20
72.43520513082201
 30
0.0
 11
72.34695387312223
 21
72.43520513082201
 31
0.0
  0
LINE
  5
F8
330
1F
100
AcDbEntity
  8
0
  6
Continuous
 62
     7
100
AcDbLine
 10
78.34695387312223
 20
72.43520513082201
 30
0.0
 11
75.34695387312223
 21
72.43520513082201
 31
0.0
  0
LINE
  5
F9
330
1F
100
AcDbEntity
  8
0
  6
Continuous
 62
     7
100
AcDbLine
 10
81.34695387312223
 20
72.43520513082201
 30
0.0
 11
78.34695387312223
 21
72.43520513082201
 31
0.0
  0
LINE
  5
FA
330
1F
100
AcDbEntity
  8
0
  6
Continuous
 62
     7
100
AcDbLine
 10
90.34695387312217
 20
103.935205130822
 30
0.0
 11
91.97384588951138
 21
103.935205130822
 31
0.0
  0
LINE
  5
FB
330
1F
100
AcDbEntity
  8
0
  6
Continuous
 62
     7
100
AcDbLine
 10
93.34695387312217
 20
78.43520513082201
 30
0.0
 11
93.34695387312217
 21
103.935205130822
 31
0.0
  0
LINE
  5
FC
330
1F
100
AcDbEntity
  8
0
  6
Continuous
 62
     7
100
AcDbLine
 10
87.34695387312223
 20
89.13520513082203
 30
0.0
 11
87.34695387312223
 21
78.43520513082201
 31
0.0
  0
LINE
  5
FD
330
1F
100
AcDbEntity
  8
0
  6
Continuous
 62
     7
100
AcDbLine
 10
87.34695387312223
 20
101.4352051308231
 30
0.0
 11
87.34695387312223
 21
89.13520513082203
 31
0.0
  0
LINE
  5
FE
330
1F
100
AcDbEntity
  8
0
  6
Continuous
 62
     7
100
AcDbLine
 10
90.84695387312223
 20
78.43520513082201
 30
0.0
 11
87.34695387312223
 21
78.43520513082201
 31
0.0
  0
LINE
  5
FF
330
1F
100
AcDbEntity
  8
0
  6
Continuous
 62
     7
100
AcDbLine
 10
87.34695387312223
 20
76.13520513082203
 30
0.0
 11
87.34695387312223
 21
72.43520513082201
 31
0.0
  0
LINE
  5
100
330
1F
100
AcDbEntity
  8
0
  6
Continuous
 62
     7
100
AcDbLine
 10
90.8469538731222
 20
76.13520513082203
 30
0.0
 11
87.34695387312223
 21
76.13520513082203
 31
0.0
  0
LINE
  5
101
330
1F
100
AcDbEntity
  8
0
  6
Continuous
 62
     7
100
AcDbLine
 10
90.34695387312223
 20
72.43520513082201
 30
0.0
 11
87.34695387312223
 21
72.43520513082201
 31
0.0
  0
LINE
  5
102
330
1F
100
AcDbEntity
  8
1
  6
DOT_CENTER
 62
     7
100
AcDbLine
 10
94.89695387312224
 20
89.43520513082201
 30
0.0
 11
94.52561180583263
 21
89.43520513082201
 31
0.0
  0
LINE
  5
103
330
1F
100
AcDbEntity
  8
1
  6
DOT_CENTER
 62
     7
100
AcDbLine
 10
93.34695387312217
 20
89.43520513082201
 30
0.0
 11
93.82561180583264
 21
89.43520513082201
 31
0.0
  0
LINE
  5
104
330
1F
100
AcDbEntity
  8
1
  6
DOT_CENTER
 62
     7
100
AcDbLine
 10
89.37384588951136
 20
103.935205130822
 30
0.0
 11
89.37384588951136
 21
104.435205130822
 31
0.0
  0
LINE
  5
105
330
1F
100
AcDbEntity
  8
1
  6
DOT_CENTER
 62
     7
100
AcDbLine
 10
79.41515192465613
 20
103.935205130822
 30
0.0
 11
79.41515192465613
 21
104.435205130822
 31
0.0
  0
LINE
  5
106
330
1F
100
AcDbEntity
  8
0
  6
Continuous
 62
     7
100
AcDbLine
 10
39.69005427187591
 20
104.435205130822
 30
0.0
 11
44.8900542718759
 21
104.435205130822
 31
0.0
  0
LINE
  5
107
330
1F
100
AcDbEntity
  8
0
  6
Continuous
 62
     7
100
AcDbLine
 10
41.84695353390404
 20
92.93520513082204
 30
0.0
 11
41.35601553390404
 21
92.93520513082204
 31
0.0
  0
LINE
  5
108
330
1F
100
AcDbEntity
  8
0
  6
Continuous
 62
     7
100
AcDbLine
 10
41.84695353390407
 20
103.935205130822
 30
0.0
 11
43.64695353390408
 21
103.935205130822
 31
0.0
  0
LINE
  5
109
330
1F
100
AcDbEntity
  8
0
  6
Continuous
 62
     7
100
AcDbLine
 10
39.69005427187591
 20
103.935205130822
 30
0.0
 11
41.84695353390407
 21
103.935205130822
 31
0.0
  0
LINE
  5
10A
330
1F
100
AcDbEntity
  8
0
  6
Continuous
 62
     7
100
AcDbLine
 10
35.84695353390404
 20
103.935205130822
 30
0.0
 11
38.01515158543805
 21
103.935205130822
 31
0.0
  0
LINE
  5
10B
330
1F
100
AcDbEntity
  8
0
  6
Continuous
 62
     7
100
AcDbLine
 10
38.01515158543805
 20
103.935205130822
 30
0.0
 11
39.67875548237009
 21
103.935205130822
 31
0.0
  0
LINE
  5
10C
330
1F
100
AcDbEntity
  8
0
  6
Continuous
 62
     7
100
AcDbLine
 10
39.67875548237009
 20
103.935205130822
 30
0.0
 11
39.69005427187591
 21
103.935205130822
 31
0.0
  0
LINE
  5
10D
330
1F
100
AcDbEntity
  8
0
  6
Continuous
 62
     7
100
AcDbLine
 10
31.34695353390404
 20
103.935205130822
 30
0.0
 11
29.41290250817306
 21
103.935205130822
 31
0.0
  0
LINE
  5
10E
330
1F
100
AcDbEntity
  8
0
  6
Continuous
 62
     7
100
AcDbLine
 10
34.61290250817308
 20
103.935205130822
 30
0.0
 11
35.84695353390404
 21
103.935205130822
 31
0.0
  0
LINE
  5
10F
330
1F
100
AcDbEntity
  8
0
  6
Continuous
 62
     7
100
AcDbLine
 10
29.41290250817306
 20
103.935205130822
 30
0.0
 11
28.34695353390404
 21
103.935205130822
 31
0.0
  0
LINE
  5
110
330
1F
100
AcDbEntity
  8
0
  6
Continuous
 62
     7
100
AcDbLine
 10
41.84695353390407
 20
93.23520513082205
 30
0.0
 11
41.84695353390407
 21
103.935205130822
 31
0.0
  0
LINE
  5
111
330
1F
100
AcDbEntity
  8
0
  6
Continuous
 62
     7
100
AcDbLine
 10
35.84695353390404
 20
93.23520513082205
 30
0.0
 11
36.33789153390404
 21
93.23520513082205
 31
0.0
  0
LINE
  5
112
330
1F
100
AcDbEntity
  8
0
  6
Continuous
 62
     7
100
AcDbLine
 10
41.35601553390407
 20
93.23520513082205
 30
0.0
 11
41.84695353390407
 21
93.23520513082205
 31
0.0
  0
LINE
  5
113
330
1F
100
AcDbEntity
  8
0
  6
Continuous
 62
     7
100
AcDbLine
 10
36.33789153390404
 20
93.23520513082205
 30
0.0
 11
41.35601553390407
 21
93.23520513082205
 31
0.0
  0
LINE
  5
114
330
1F
100
AcDbEntity
  8
0
  6
Continuous
 62
     7
100
AcDbLine
 10
28.34695353390407
 20
76.13520513082203
 30
0.0
 11
26.84695353390396
 21
76.13520513082203
 31
0.0
  0
LINE
  5
115
330
1F
100
AcDbEntity
  8
0
  6
Continuous
 62
     7
100
AcDbLine
 10
28.34695353390404
 20
78.43520513082201
 30
0.0
 11
26.84695353390396
 21
78.43520513082201
 31
0.0
  0
LINE
  5
116
330
1F
100
AcDbEntity
  8
0
  6
Continuous
 62
     7
100
AcDbLine
 10
29.09695353390407
 20
72.43520513082201
 30
0.0
 11
29.09695353390407
 21
76.13520513082203
 31
0.0
  0
LINE
  5
117
330
1F
100
AcDbEntity
  8
0
  6
Continuous
 62
     7
100
AcDbLine
 10
28.34695353390407
 20
76.13520513082203
 30
0.0
 11
28.34695353390407
 21
72.43520513082201
 31
0.0
  0
LINE
  5
118
330
1F
100
AcDbEntity
  8
0
  6
Continuous
 62
     7
100
AcDbLine
 10
26.84695353390396
 20
78.43520513082201
 30
0.0
 11
26.84695353390396
 21
76.13520513082203
 31
0.0
  0
LINE
  5
119
330
1F
100
AcDbEntity
  8
0
  6
Continuous
 62
     7
100
AcDbLine
 10
41.73615757654278
 20
89.68520513082201
 30
0.0
 11
41.63577048738091
 21
89.68520513082201
 31
0.0
  0
LINE
  5
11A
330
1F
100
AcDbEntity
  8
0
  6
Continuous
 62
     7
100
AcDbLine
 10
41.63577048738091
 20
89.18520513082201
 30
0.0
 11
41.73615757654278
 21
89.18520513082201
 31
0.0
  0
LINE
  5
11B
330
1F
100
AcDbEntity
  8
0
  6
Continuous
 62
     7
100
AcDbLine
 10
41.84695353390407
 20
86.43520513082201
 30
0.0
 11
41.84695353390404
 21
92.93520513082204
 31
0.0
  0
LINE
  5
11C
330
1F
100
AcDbEntity
  8
0
  6
Continuous
 62
     7
100
AcDbLine
 10
36.98714714501469
 20
87.21009385363917
 30
0.0
 11
37.0581501493173
 21
87.28109685794179
 31
0.0
  0
LINE
  5
11D
330
1F
100
AcDbEntity
  8
0
  6
Continuous
 62
     7
100
AcDbLine
 10
36.70354330572937
 20
87.63359679554041
 30
0.0
 11
36.63257690458198
 21
87.562630394393
 31
0.0
  0
LINE
  5
11E
330
1F
100
AcDbEntity
  8
0
  6
Continuous
 62
     7
100
AcDbLine
 10
37.68022734494625
 20
88.83416436681343
 30
0.0
 11
38.24591276989554
 21
88.26847894186425
 31
0.0
  0
LINE
  5
11F
330
1F
100
AcDbEntity
  8
0
  6
Continuous
 62
     7
100
AcDbLine
 10
38.84695353390404
 20
88.63107013082201
 30
0.0
 11
38.24591276989554
 21
88.26847894186425
 31
0.0
  0
LINE
  5
120
330
1F
100
AcDbEntity
  8
0
  6
Continuous
 62
     7
100
AcDbLine
 10
39.4479942979126
 20
88.2684789418642
 30
0.0
 11
38.84695353390404
 21
88.63107013082201
 31
0.0
  0
LINE
  5
121
330
1F
100
AcDbEntity
  8
0
  6
Continuous
 62
     7
100
AcDbLine
 10
39.80154768850588
 20
87.91492555127094
 30
0.0
 11
39.4479942979126
 21
88.2684789418642
 31
0.0
  0
LINE
  5
122
330
1F
100
AcDbEntity
  8
0
  6
Continuous
 62
     7
100
AcDbLine
 10
40.01367972286184
 20
88.83416436681345
 30
0.0
 11
40.36723311345511
 21
88.48061097622016
 31
0.0
  0
LINE
  5
123
330
1F
100
AcDbEntity
  8
0
  6
Continuous
 62
     7
100
AcDbLine
 10
40.36723311345511
 20
88.48061097622016
 30
0.0
 11
39.80154768850588
 21
87.91492555127094
 31
0.0
  0
LINE
  5
124
330
1F
100
AcDbEntity
  8
0
  6
Continuous
 62
     7
100
AcDbLine
 10
36.60451902720288
 20
87.75845604907006
 30
0.0
 11
37.68022734494625
 21
88.83416436681343
 31
0.0
  0
LINE
  5
125
330
1F
100
AcDbEntity
  8
0
  6
Continuous
 62
     7
100
AcDbLine
 10
40.01367972286187
 20
90.03624589483059
 30
0.0
 11
39.44799429791263
 21
90.60193131977981
 31
0.0
  0
LINE
  5
126
330
1F
100
AcDbEntity
  8
0
  6
Continuous
 62
     7
100
AcDbLine
 10
39.10870503160425
 20
86.54704202021837
 30
0.0
 11
39.10870503160425
 21
86.64746659332398
 31
0.0
  0
LINE
  5
127
330
1F
100
AcDbEntity
  8
0
  6
Continuous
 62
     7
100
AcDbLine
 10
39.10870503160425
 20
92.22294366832004
 30
0.0
 11
39.10870503160425
 21
92.32336824142565
 31
0.0
  0
LINE
  5
128
330
1F
100
AcDbEntity
  8
0
  6
Continuous
 62
     7
100
AcDbLine
 10
38.60870503160425
 20
86.64535967790677
 30
0.0
 11
38.60870503160425
 21
86.5450083120652
 31
0.0
  0
LINE
  5
129
330
1F
100
AcDbEntity
  8
0
  6
Continuous
 62
     7
100
AcDbLine
 10
38.60870503160425
 20
92.32540194957882
 30
0.0
 11
38.60870503160425
 21
92.22505058373726
 31
0.0
  0
LINE
  5
12A
330
1F
100
AcDbEntity
  8
0
  6
Continuous
 62
     7
100
AcDbLine
 10
41.35601553390404
 20
92.93520513082204
 30
0.0
 11
36.33789153390404
 21
92.93520513082204
 31
0.0
  0
LINE
  5
12B
330
1F
100
AcDbEntity
  8
0
  6
Continuous
 62
     7
100
AcDbLine
 10
38.84695353390404
 20
90.23934013082201
 30
0.0
 11
39.44799429791263
 21
90.60193131977981
 31
0.0
  0
LINE
  5
12C
330
1F
100
AcDbEntity
  8
0
  6
Continuous
 62
     7
100
AcDbLine
 10
38.24591276989548
 20
90.60193131977981
 30
0.0
 11
38.84695353390404
 21
90.23934013082201
 31
0.0
  0
LINE
  5
12D
330
1F
100
AcDbEntity
  8
0
  6
Continuous
 62
     7
100
AcDbLine
 10
37.89235937930221
 20
90.95548471037309
 30
0.0
 11
38.24591276989548
 21
90.60193131977981
 31
0.0
  0
LINE
  5
12E
330
1F
100
AcDbEntity
  8
0
  6
Continuous
 62
     7
100
AcDbLine
 10
37.68022734494625
 20
90.03624589483059
 30
0.0
 11
37.32667395435297
 21
90.38979928542385
 31
0.0
  0
LINE
  5
12F
330
1F
100
AcDbEntity
  8
0
  6
Continuous
 62
     7
100
AcDbLine
 10
37.32667395435297
 20
90.38979928542385
 30
0.0
 11
37.89235937930221
 21
90.95548471037309
 31
0.0
  0
LINE
  5
130
330
1F
100
AcDbEntity
  8
0
  6
Continuous
 62
     7
100
AcDbLine
 10
39.44799429791263
 20
90.60193131977981
 30
0.0
 11
40.52370261565599
 21
91.67763963752317
 31
0.0
  0
LINE
  5
131
330
1F
100
AcDbEntity
  8
0
  6
Continuous
 62
     7
100
AcDbLine
 10
37.0581501493173
 20
91.58931340370223
 30
0.0
 11
36.98714714501469
 21
91.66031640800485
 31
0.0
  0
LINE
  5
132
330
1F
100
AcDbEntity
  8
0
  6
Continuous
 62
     7
100
AcDbLine
 10
36.63257690458198
 20
91.30777986725103
 30
0.0
 11
36.70354330572937
 21
91.23681346610361
 31
0.0
  0
LINE
  5
133
330
1F
100
AcDbEntity
  8
0
  6
Continuous
 62
     7
100
AcDbLine
 10
41.0720648110869
 20
87.57539874193264
 30
0.0
 11
41.00106180678426
 21
87.64640174623527
 31
0.0
  0
LINE
  5
134
330
1F
100
AcDbEntity
  8
0
  6
Continuous
 62
     7
100
AcDbLine
 10
41.35601553390407
 20
93.23520513082205
 30
0.0
 11
41.35601553390404
 21
92.93520513082204
 31
0.0
  0
LINE
  5
135
330
1F
100
AcDbEntity
  8
0
  6
Continuous
 62
     7
100
AcDbLine
 10
41.0893880406052
 20
91.11195421257392
 30
0.0
 11
40.01367972286187
 21
90.03624589483059
 31
0.0
  0
LINE
  5
136
330
1F
100
AcDbEntity
  8
0
  6
Continuous
 62
     7
100
AcDbLine
 10
41.00106180678426
 20
91.22400851540876
 30
0.0
 11
41.0720648110869
 21
91.29501151971138
 31
0.0
  0
LINE
  5
137
330
1F
100
AcDbEntity
  8
0
  6
Continuous
 62
     7
100
AcDbLine
 10
40.64856186918564
 20
87.29179490264734
 30
0.0
 11
40.71952827033306
 21
87.22082850149992
 31
0.0
  0
LINE
  5
138
330
1F
100
AcDbEntity
  8
0
  6
Continuous
 62
     7
100
AcDbLine
 10
40.71952827033306
 20
91.6495817601441
 30
0.0
 11
40.64856186918564
 21
91.57861535899669
 31
0.0
  0
LINE
  5
139
330
1F
100
AcDbEntity
  8
0
  6
Continuous
 62
     7
100
AcDbLine
 10
37.68022734494625
 20
88.83416436681343
 30
0.0
 11
38.04281853390404
 21
89.43520513082201
 31
0.0
  0
LINE
  5
13A
330
1F
100
AcDbEntity
  8
0
  6
Continuous
 62
     7
100
AcDbLine
 10
40.01367972286187
 20
90.03624589483059
 30
0.0
 11
39.65108853390404
 21
89.43520513082201
 31
0.0
  0
LINE
  5
13B
330
1F
100
AcDbEntity
  8
0
  6
Continuous
 62
     7
100
AcDbLine
 10
39.65108853390404
 20
89.43520513082201
 30
0.0
 11
40.01367972286184
 21
88.83416436681345
 31
0.0
  0
LINE
  5
13C
330
1F
100
AcDbEntity
  8
0
  6
Continuous
 62
     7
100
AcDbLine
 10
38.04281853390404
 20
89.43520513082201
 30
0.0
 11
37.68022734494625
 21
90.03624589483059
 31
0.0
  0
LINE
  5
13D
330
1F
100
AcDbEntity
  8
0
  6
Continuous
 62
     7
100
AcDbLine
 10
35.95774949126533
 20
89.18520513082201
 30
0.0
 11
36.05813658042717
 21
89.18520513082201
 31
0.0
  0
LINE
  5
13E
330
1F
100
AcDbEntity
  8
0
  6
Continuous
 62
     7
100
AcDbLine
 10
36.05813658042717
 20
89.68520513082201
 30
0.0
 11
35.95774949126533
 21
89.68520513082201
 31
0.0
  0
LINE
  5
13F
330
1F
100
AcDbEntity
  8
0
  6
Continuous
 62
     7
100
AcDbLine
 10
35.84695353390407
 20
84.63520513082203
 30
0.0
 11
35.84695353390407
 21
78.43520513082201
 31
0.0
  0
LINE
  5
140
330
1F
100
AcDbEntity
  8
0
  6
Continuous
 62
     7
100
AcDbLine
 10
35.84695353390407
 20
84.63520513082203
 30
0.0
 11
35.84695353390407
 21
85.38520513082202
 31
0.0
  0
LINE
  5
141
330
1F
100
AcDbEntity
  8
0
  6
Continuous
 62
     7
100
AcDbLine
 10
35.84695353390407
 20
92.93520513082204
 30
0.0
 11
35.84695353390404
 21
86.43520513082201
 31
0.0
  0
LINE
  5
142
330
1F
100
AcDbEntity
  8
0
  6
Continuous
 62
     7
100
AcDbLine
 10
36.33789153390404
 20
92.93520513082204
 30
0.0
 11
35.84695353390407
 21
92.93520513082204
 31
0.0
  0
LINE
  5
143
330
1F
100
AcDbEntity
  8
0
  6
Continuous
 62
     7
100
AcDbLine
 10
35.84695353390404
 20
103.935205130822
 30
0.0
 11
35.84695353390404
 21
93.23520513082205
 31
0.0
  0
LINE
  5
144
330
1F
100
AcDbEntity
  8
0
  6
Continuous
 62
     7
100
AcDbLine
 10
36.33789153390404
 20
93.23520513082205
 30
0.0
 11
36.33789153390404
 21
92.93520513082204
 31
0.0
  0
LINE
  5
145
330
1F
100
AcDbEntity
  8
0
  6
Continuous
 62
     7
100
AcDbLine
 10
38.24591276989554
 20
88.26847894186425
 30
0.0
 11
37.17020445215212
 21
87.19277062412084
 31
0.0
  0
LINE
  5
146
330
1F
100
AcDbEntity
  8
0
  6
Continuous
 62
     7
100
AcDbLine
 10
31.34695353390404
 20
103.935205130822
 30
0.0
 11
34.04695353390403
 21
103.935205130822
 31
0.0
  0
LINE
  5
147
330
1F
100
AcDbEntity
  8
0
  6
Continuous
 62
     7
100
AcDbLine
 10
34.04695353390406
 20
84.63520513082203
 30
0.0
 11
34.04695353390403
 21
103.935205130822
 31
0.0
  0
LINE
  5
148
330
1F
100
AcDbEntity
  8
0
  6
Continuous
 62
     7
100
AcDbLine
 10
44.8900542718759
 20
103.935205130822
 30
0.0
 11
44.8900542718759
 21
104.435205130822
 31
0.0
  0
LINE
  5
149
330
1F
100
AcDbEntity
  8
0
  6
Continuous
 62
     7
100
AcDbLine
 10
43.64695353390405
 20
84.63520513082203
 30
0.0
 11
43.64695353390408
 21
103.935205130822
 31
0.0
  0
LINE
  5
14A
330
1F
100
AcDbEntity
  8
0
  6
Continuous
 62
     7
100
AcDbLine
 10
43.64695353390408
 20
103.935205130822
 30
0.0
 11
44.8900542718759
 21
103.935205130822
 31
0.0
  0
LINE
  5
14B
330
1F
100
AcDbEntity
  8
0
  6
Continuous
 62
     7
100
AcDbLine
 10
44.8900542718759
 20
103.935205130822
 30
0.0
 11
46.34695353390407
 21
103.935205130822
 31
0.0
  0
LINE
  5
14C
330
1F
100
AcDbEntity
  8
0
  6
Continuous
 62
     7
100
AcDbLine
 10
49.34695353390407
 20
103.935205130822
 30
0.0
 11
49.34695353390407
 21
78.43520513082201
 31
0.0
  0
LINE
  5
14D
330
1F
100
AcDbEntity
  8
0
  6
Continuous
 62
     7
100
AcDbLine
 10
46.34695353390407
 20
103.935205130822
 30
0.0
 11
49.34695353390407
 21
103.935205130822
 31
0.0
  0
LINE
  5
14E
330
1F
100
AcDbEntity
  8
0
  6
Continuous
 62
     7
100
AcDbLine
 10
48.59695353390407
 20
76.13520513082203
 30
0.0
 11
46.84695353390407
 21
76.13520513082203
 31
0.0
  0
LINE
  5
14F
330
1F
100
AcDbEntity
  8
0
  6
Continuous
 62
     7
100
AcDbLine
 10
48.59695353390407
 20
72.43520513082201
 30
0.0
 11
48.59695353390407
 21
76.13520513082203
 31
0.0
  0
LINE
  5
150
330
1F
100
AcDbEntity
  8
0
  6
Continuous
 62
     7
100
AcDbLine
 10
49.34695353390407
 20
76.13520513082203
 30
0.0
 11
49.34695353390407
 21
72.43520513082201
 31
0.0
  0
LINE
  5
151
330
1F
100
AcDbEntity
  8
0
  6
Continuous
 62
     7
100
AcDbLine
 10
46.34695353390407
 20
72.43520513082201
 30
0.0
 11
48.59695353390407
 21
72.43520513082201
 31
0.0
  0
LINE
  5
152
330
1F
100
AcDbEntity
  8
0
  6
Continuous
 62
     7
100
AcDbLine
 10
49.34695353390407
 20
72.43520513082201
 30
0.0
 11
48.59695353390407
 21
72.43520513082201
 31
0.0
  0
LINE
  5
153
330
1F
100
AcDbEntity
  8
0
  6
Continuous
 62
     7
100
AcDbLine
 10
46.84695353390407
 20
78.43520513082201
 30
0.0
 11
41.84695353390407
 21
78.43520513082201
 31
0.0
  0
LINE
  5
154
330
1F
100
AcDbEntity
  8
0
  6
Continuous
 62
     7
100
AcDbLine
 10
49.34695353390407
 20
78.43520513082201
 30
0.0
 11
46.84695353390407
 21
78.43520513082201
 31
0.0
  0
LINE
  5
155
330
1F
100
AcDbEntity
  8
0
  6
Continuous
 62
     7
100
AcDbLine
 10
50.84695353390407
 20
78.43520513082201
 30
0.0
 11
49.34695353390407
 21
78.43520513082201
 31
0.0
  0
LINE
  5
156
330
1F
100
AcDbEntity
  8
0
  6
Continuous
 62
     7
100
AcDbLine
 10
49.34695353390407
 20
76.13520513082203
 30
0.0
 11
48.59695353390407
 21
76.13520513082203
 31
0.0
  0
LINE
  5
157
330
1F
100
AcDbEntity
  8
0
  6
Continuous
 62
     7
100
AcDbLine
 10
50.84695353390407
 20
76.13520513082203
 30
0.0
 11
49.34695353390407
 21
76.13520513082203
 31
0.0
  0
LINE
  5
158
330
1F
100
AcDbEntity
  8
0
  6
Continuous
 62
     7
100
AcDbLine
 10
50.84695353390407
 20
78.43520513082201
 30
0.0
 11
50.84695353390407
 21
76.13520513082203
 31
0.0
  0
LINE
  5
159
330
1F
100
AcDbEntity
  8
0
  6
Continuous
 62
     7
100
AcDbLine
 10
41.84695353390407
 20
72.43520513082201
 30
0.0
 11
41.84695353390407
 21
76.13520513082203
 31
0.0
  0
LINE
  5
15A
330
1F
100
AcDbEntity
  8
0
  6
Continuous
 62
     7
100
AcDbLine
 10
46.84695353390407
 20
76.13520513082203
 30
0.0
 11
41.84695353390407
 21
76.13520513082203
 31
0.0
  0
LINE
  5
15B
330
1F
100
AcDbEntity
  8
0
  6
Continuous
 62
     7
100
AcDbLine
 10
29.09695353390407
 20
76.13520513082203
 30
0.0
 11
28.34695353390407
 21
76.13520513082203
 31
0.0
  0
LINE
  5
15C
330
1F
100
AcDbEntity
  8
0
  6
Continuous
 62
     7
100
AcDbLine
 10
30.84695353390396
 20
76.13520513082203
 30
0.0
 11
29.09695353390407
 21
76.13520513082203
 31
0.0
  0
LINE
  5
15D
330
1F
100
AcDbEntity
  8
0
  6
Continuous
 62
     7
100
AcDbLine
 10
35.84695353390407
 20
72.43520513082201
 30
0.0
 11
35.84695353390407
 21
76.13520513082203
 31
0.0
  0
LINE
  5
15E
330
1F
100
AcDbEntity
  8
0
  6
Continuous
 62
     7
100
AcDbLine
 10
35.84695353390407
 20
72.43520513082201
 30
0.0
 11
31.34695353390407
 21
72.43520513082201
 31
0.0
  0
LINE
  5
15F
330
1F
100
AcDbEntity
  8
0
  6
Continuous
 62
     7
100
AcDbLine
 10
31.34695353390407
 20
72.43520513082201
 30
0.0
 11
29.09695353390407
 21
72.43520513082201
 31
0.0
  0
LINE
  5
160
330
1F
100
AcDbEntity
  8
0
  6
Continuous
 62
     7
100
AcDbLine
 10
46.34695353390407
 20
72.43520513082201
 30
0.0
 11
41.84695353390407
 21
72.43520513082201
 31
0.0
  0
LINE
  5
161
330
1F
100
AcDbEntity
  8
0
  6
Continuous
 62
     7
100
AcDbLine
 10
29.09695353390407
 20
72.43520513082201
 30
0.0
 11
28.34695353390407
 21
72.43520513082201
 31
0.0
  0
LINE
  5
162
330
1F
100
AcDbEntity
  8
0
  6
Continuous
 62
     7
100
AcDbLine
 10
41.84695353390407
 20
72.43520513082201
 30
0.0
 11
35.84695353390407
 21
72.43520513082201
 31
0.0
  0
LINE
  5
163
330
1F
100
AcDbEntity
  8
0
  6
Continuous
 62
     7
100
AcDbLine
 10
41.84695353390407
 20
78.43520513082201
 30
0.0
 11
41.84695353390407
 21
84.63520513082203
 31
0.0
  0
LINE
  5
164
330
1F
100
AcDbEntity
  8
0
  6
Continuous
 62
     7
100
AcDbLine
 10
41.84695353390407
 20
76.13520513082203
 30
0.0
 11
35.84695353390407
 21
76.13520513082203
 31
0.0
  0
LINE
  5
165
330
1F
100
AcDbEntity
  8
0
  6
Continuous
 62
     7
100
AcDbLine
 10
41.84695353390407
 20
84.63520513082203
 30
0.0
 11
41.84695353390407
 21
85.38520513082202
 31
0.0
  0
LINE
  5
166
330
1F
100
AcDbEntity
  8
0
  6
Continuous
 62
     7
100
AcDbLine
 10
35.84695353390407
 20
84.63520513082203
 30
0.0
 11
34.04695353390406
 21
84.63520513082203
 31
0.0
  0
LINE
  5
167
330
1F
100
AcDbEntity
  8
0
  6
Continuous
 62
     7
100
AcDbLine
 10
41.84695353390407
 20
86.43520513082201
 30
0.0
 11
35.84695353390404
 21
86.43520513082201
 31
0.0
  0
LINE
  5
168
330
1F
100
AcDbEntity
  8
0
  6
Continuous
 62
     7
100
AcDbLine
 10
35.84695353390404
 20
86.43520513082201
 30
0.0
 11
34.04695353390406
 21
84.63520513082203
 31
0.0
  0
LINE
  5
169
330
1F
100
AcDbEntity
  8
0
  6
Continuous
 62
     7
100
AcDbLine
 10
35.84695353390407
 20
85.38520513082202
 30
0.0
 11
41.84695353390407
 21
85.38520513082202
 31
0.0
  0
LINE
  5
16A
330
1F
100
AcDbEntity
  8
0
  6
Continuous
 62
     7
100
AcDbLine
 10
43.64695353390405
 20
84.63520513082203
 30
0.0
 11
41.84695353390407
 21
84.63520513082203
 31
0.0
  0
LINE
  5
16B
330
1F
100
AcDbEntity
  8
0
  6
Continuous
 62
     7
100
AcDbLine
 10
43.64695353390405
 20
84.63520513082203
 30
0.0
 11
41.84695353390407
 21
86.43520513082201
 31
0.0
  0
LINE
  5
16C
330
1F
100
AcDbEntity
  8
0
  6
Continuous
 62
     7
100
AcDbLine
 10
41.84695353390407
 20
78.43520513082201
 30
0.0
 11
35.84695353390407
 21
78.43520513082201
 31
0.0
  0
LINE
  5
16D
330
1F
100
AcDbEntity
  8
0
  6
Continuous
 62
     7
100
AcDbLine
 10
30.84695353390396
 20
78.43520513082201
 30
0.0
 11
28.34695353390404
 21
78.43520513082201
 31
0.0
  0
LINE
  5
16E
330
1F
100
AcDbEntity
  8
0
  6
Continuous
 62
     7
100
AcDbLine
 10
28.34695353390404
 20
78.43520513082201
 30
0.0
 11
28.34695353390404
 21
103.935205130822
 31
0.0
  0
LINE
  5
16F
330
1F
100
AcDbEntity
  8
0
  6
Continuous
 62
     7
100
AcDbLine
 10
35.84695353390407
 20
78.43520513082201
 30
0.0
 11
30.84695353390396
 21
78.43520513082201
 31
0.0
  0
LINE
  5
170
330
1F
100
AcDbEntity
  8
0
  6
Continuous
 62
     7
100
AcDbLine
 10
35.84695353390407
 20
76.13520513082203
 30
0.0
 11
30.84695353390396
 21
76.13520513082203
 31
0.0
  0
LINE
  5
171
330
1F
100
AcDbEntity
  8
0
  6
Continuous
 62
     7
100
AcDbLine
 10
29.41290250817306
 20
103.935205130822
 30
0.0
 11
29.41290250817306
 21
104.435205130822
 31
0.0
  0
LINE
  5
172
330
1F
100
AcDbEntity
  8
0
  6
Continuous
 62
     7
100
AcDbLine
 10
34.04695353390403
 20
103.935205130822
 30
0.0
 11
34.61290250817308
 21
103.935205130822
 31
0.0
  0
LINE
  5
173
330
1F
100
AcDbEntity
  8
0
  6
Continuous
 62
     7
100
AcDbLine
 10
29.41290250817306
 20
104.435205130822
 30
0.0
 11
34.61290250817308
 21
104.435205130822
 31
0.0
  0
LINE
  5
174
330
1F
100
AcDbEntity
  8
0
  6
Continuous
 62
     7
100
AcDbLine
 10
34.61290250817308
 20
103.935205130822
 30
0.0
 11
34.61290250817308
 21
104.435205130822
 31
0.0
  0
LINE
  5
175
330
1F
100
AcDbEntity
  8
0
  6
Continuous
 62
     7
100
AcDbLine
 10
38.01515158543805
 20
103.935205130822
 30
0.0
 11
38.01515158543805
 21
104.435205130822
 31
0.0
  0
LINE
  5
176
330
1F
100
AcDbEntity
  8
0
  6
Continuous
 62
     7
100
AcDbLine
 10
39.67875548237009
 20
104.435205130822
 30
0.0
 11
39.69005427187591
 21
104.435205130822
 31
0.0
  0
LINE
  5
177
330
1F
100
AcDbEntity
  8
0
  6
Continuous
 62
     7
100
AcDbLine
 10
39.69005427187591
 20
103.935205130822
 30
0.0
 11
39.69005427187591
 21
104.435205130822
 31
0.0
  0
LINE
  5
178
330
1F
100
AcDbEntity
  8
0
  6
Continuous
 62
     7
100
AcDbLine
 10
39.67875548237009
 20
103.935205130822
 30
0.0
 11
39.67875548237009
 21
104.435205130822
 31
0.0
  0
LINE
  5
179
330
1F
100
AcDbEntity
  8
0
  6
Continuous
 62
     7
100
AcDbLine
 10
34.61290250817308
 20
104.435205130822
 30
0.0
 11
38.01515158543805
 21
104.435205130822
 31
0.0
  0
LINE
  5
17A
330
1F
100
AcDbEntity
  8
1
  6
DOT_CENTER
 62
     7
100
AcDbLine
 10
41.92695353390405
 20
89.43520513082201
 30
0.0
 11
35.76695353390403
 21
89.43520513082201
 31
0.0
  0
LINE
  5
17B
330
1F
100
AcDbEntity
  8
1
  6
DOT_CENTER
 62
     7
100
AcDbLine
 10
38.84695353390404
 20
92.515205130822
 30
0.0
 11
38.84695353390404
 21
86.355205130822
 31
0.0
  0
LINE
  5
17C
330
1F
100
AcDbEntity
  8
1
  6
DOT_CENTER
 62
     7
100
AcDbLine
 10
42.2900542718759
 20
103.935205130822
 30
0.0
 11
42.2900542718759
 21
104.435205130822
 31
0.0
  0
LINE
  5
17D
330
1F
100
AcDbEntity
  8
1
  6
DOT_CENTER
 62
     7
100
AcDbLine
 10
32.01290250817308
 20
103.935205130822
 30
0.0
 11
32.01290250817308
 21
104.435205130822
 31
0.0
  0
LINE
  5
17E
330
1F
100
AcDbEntity
  8
0
  6
Continuous
 62
     7
100
AcDbLine
 10
38.04281853390404
 20
142.3774274248125
 30
0.0
 11
38.04281853390404
 21
142.2054687358342
 31
0.0
  0
LINE
  5
17F
330
1F
100
AcDbEntity
  8
0
  6
Continuous
 62
     7
100
AcDbLine
 10
39.65108853390404
 20
142.3774274248125
 30
0.0
 11
39.65108853390404
 21
142.2054687358342
 31
0.0
  0
LINE
  5
180
330
1F
100
AcDbEntity
  8
0
  6
Continuous
 62
     7
100
AcDbLine
 10
36.60451902720288
 20
141.6852055123774
 30
0.0
 11
36.04695353390406
 21
141.6852055123774
 31
0.0
  0
LINE
  5
181
330
1F
100
AcDbEntity
  8
0
  6
Continuous
 62
     7
100
AcDbLine
 10
36.04695353390406
 20
141.6852055123774
 30
0.0
 11
36.04695353390406
 21
141.6352055123774
 31
0.0
  0
LINE
  5
182
330
1F
100
AcDbEntity
  8
0
  6
Continuous
 62
     7
100
AcDbLine
 10
40.01367972286184
 20
142.2794966823824
 30
0.0
 11
40.01367972286187
 21
142.1540626908867
 31
0.0
  0
LINE
  5
183
330
1F
100
AcDbEntity
  8
0
  6
Continuous
 62
     7
100
AcDbLine
 10
37.68022734494625
 20
142.0313751057102
 30
0.0
 11
37.68022734494625
 21
142.2794966823824
 31
0.0
  0
LINE
  5
184
330
1F
100
AcDbEntity
  8
0
  6
Continuous
 62
     7
100
AcDbLine
 10
36.60451902720288
 20
141.6852055123774
 30
0.0
 11
36.60451902720288
 21
141.6352055123774
 31
0.0
  0
LINE
  5
185
330
1F
100
AcDbEntity
  8
0
  6
Continuous
 62
     7
100
AcDbLine
 10
37.17020445215212
 20
141.6852055123774
 30
0.0
 11
37.17020445215212
 21
141.6352055123774
 31
0.0
  0
LINE
  5
186
330
1F
100
AcDbEntity
  8
0
  6
Continuous
 62
     7
100
AcDbLine
 10
41.64695353390405
 20
141.6852055123774
 30
0.0
 11
37.17020445215212
 21
141.6852055123774
 31
0.0
  0
LINE
  5
187
330
1F
100
AcDbEntity
  8
0
  6
Continuous
 62
     7
100
AcDbLine
 10
41.64695353390405
 20
141.6852055123774
 30
0.0
 11
41.64695353390405
 21
141.6352055123774
 31
0.0
  0
LINE
  5
188
330
1F
100
AcDbEntity
  8
0
  6
Continuous
 62
     7
100
AcDbLine
 10
46.34695353390407
 20
139.3852055123774
 30
0.0
 11
41.84695353390407
 21
139.3852055123774
 31
0.0
  0
LINE
  5
189
330
1F
100
AcDbEntity
  8
0
  6
Continuous
 62
     7
100
AcDbLine
 10
41.84695353390407
 20
140.1352055123774
 30
0.0
 11
35.84695353390407
 21
140.1352055123774
 31
0.0
  0
LINE
  5
18A
330
1F
100
AcDbEntity
  8
0
  6
Continuous
 62
     7
100
AcDbLine
 10
35.84695353390407
 20
140.1352055123774
 30
0.0
 11
35.84695353390407
 21
139.3852055123774
 31
0.0
  0
LINE
  5
18B
330
1F
100
AcDbEntity
  8
0
  6
Continuous
 62
     7
100
AcDbLine
 10
45.09695353390407
 20
136.8852055123774
 30
0.0
 11
41.09194796596842
 21
136.8852055123774
 31
0.0
  0
LINE
  5
18C
330
1F
100
AcDbEntity
  8
0
  6
Continuous
 62
     7
100
AcDbLine
 10
36.6019591018397
 20
136.8852055123774
 30
0.0
 11
32.59695353390407
 21
136.8852055123774
 31
0.0
  0
LINE
  5
18D
330
1F
100
AcDbEntity
  8
0
  6
Continuous
 62
     7
100
AcDbLine
 10
41.84695353390407
 20
139.3852055123774
 30
0.0
 11
41.84695353390407
 21
140.1352055123774
 31
0.0
  0
LINE
  5
18E
330
1F
100
AcDbEntity
  8
0
  6
Continuous
 62
     7
100
AcDbLine
 10
35.84695353390407
 20
139.3852055123774
 30
0.0
 11
31.34695353390407
 21
139.3852055123774
 31
0.0
  0
LINE
  5
18F
330
1F
100
AcDbEntity
  8
0
  6
Continuous
 62
     7
100
AcDbLine
 10
46.84695353390407
 20
141.6352055123774
 30
0.0
 11
30.84695353390396
 21
141.6352055123774
 31
0.0
  0
LINE
  5
190
330
1F
100
AcDbEntity
  8
0
  6
Continuous
 62
     7
100
AcDbLine
 10
31.59695353390407
 20
128.6352055123775
 30
0.0
 11
31.59695353390407
 21
123.3852055123774
 31
0.0
  0
LINE
  5
191
330
1F
100
AcDbEntity
  8
0
  6
Continuous
 62
     7
100
AcDbLine
 10
38.04695353390406
 20
122.3852055123774
 30
0.0
 11
38.04695353390406
 21
127.1352055123775
 31
0.0
  0
LINE
  5
192
330
1F
100
AcDbEntity
  8
0
  6
Continuous
 62
     7
100
AcDbLine
 10
39.64695353390405
 20
127.1352055123775
 30
0.0
 11
39.64695353390405
 21
122.3852055123774
 31
0.0
  0
LINE
  5
193
330
1F
100
AcDbEntity
  8
0
  6
Continuous
 62
     7
100
AcDbLine
 10
29.09695353390407
 20
125.1352055123774
 30
0.0
 11
29.09695353390407
 21
122.1352055123774
 31
0.0
  0
LINE
  5
194
330
1F
100
AcDbEntity
  8
0
  6
Continuous
 62
     7
100
AcDbLine
 10
32.69195353390404
 20
127.0739555123773
 30
0.0
 11
32.49695353390405
 21
127.0739555123773
 31
0.0
  0
LINE
  5
195
330
1F
100
AcDbEntity
  8
0
  6
Continuous
 62
     7
100
AcDbLine
 10
32.49695353390405
 20
127.0739555123773
 30
0.0
 11
32.49695353390405
 21
126.9927055123773
 31
0.0
  0
LINE
  5
196
330
1F
100
AcDbEntity
  8
0
  6
Continuous
 62
     7
100
AcDbLine
 10
33.11445353390405
 20
127.2039555123773
 30
0.0
 11
33.16320353390404
 21
127.1389555123773
 31
0.0
  0
LINE
  5
197
330
1F
100
AcDbEntity
  8
0
  6
Continuous
 62
     7
100
AcDbLine
 10
33.08195353390406
 20
127.4639555123773
 30
0.0
 11
33.03320353390404
 21
127.4314555123773
 31
0.0
  0
LINE
  5
198
330
1F
100
AcDbEntity
  8
0
  6
Continuous
 62
     7
100
AcDbLine
 10
32.49695353390405
 20
126.9927055123773
 30
0.0
 11
32.52945353390405
 21
126.8789555123773
 31
0.0
  0
LINE
  5
199
330
1F
100
AcDbEntity
  8
0
  6
Continuous
 62
     7
100
AcDbLine
 10
33.16320353390404
 20
126.9439555123773
 30
0.0
 11
33.11445353390405
 21
126.8789555123773
 31
0.0
  0
LINE
  5
19A
330
1F
100
AcDbEntity
  8
0
  6
Continuous
 62
     7
100
AcDbLine
 10
33.13070353390407
 20
127.5614555123773
 30
0.0
 11
33.11445353390405
 21
127.5127055123773
 31
0.0
  0
LINE
  5
19B
330
1F
100
AcDbEntity
  8
0
  6
Continuous
 62
     7
100
AcDbLine
 10
33.11445353390405
 20
126.6677055123773
 30
0.0
 11
33.21195353390405
 21
126.7164555123773
 31
0.0
  0
LINE
  5
19C
330
1F
100
AcDbEntity
  8
0
  6
Continuous
 62
     7
100
AcDbLine
 10
33.37445353390405
 20
126.9927055123773
 30
0.0
 11
33.37445353390405
 21
127.0739555123773
 31
0.0
  0
LINE
  5
19D
330
1F
100
AcDbEntity
  8
0
  6
Continuous
 62
     7
100
AcDbLine
 10
33.17945353390405
 20
127.0089555123773
 30
0.0
 11
33.16320353390404
 21
126.9439555123773
 31
0.0
  0
LINE
  5
19E
330
1F
100
AcDbEntity
  8
0
  6
Continuous
 62
     7
100
AcDbLine
 10
33.34195353390405
 20
127.1877055123773
 30
0.0
 11
33.27695353390405
 21
127.2852055123773
 31
0.0
  0
LINE
  5
19F
330
1F
100
AcDbEntity
  8
0
  6
Continuous
 62
     7
100
AcDbLine
 10
33.37445353390405
 20
127.0739555123773
 30
0.0
 11
33.34195353390405
 21
127.1877055123773
 31
0.0
  0
LINE
  5
1A0
330
1F
100
AcDbEntity
  8
0
  6
Continuous
 62
     7
100
AcDbLine
 10
33.34195353390405
 20
126.8789555123773
 30
0.0
 11
33.37445353390405
 21
126.9927055123773
 31
0.0
  0
LINE
  5
1A1
330
1F
100
AcDbEntity
  8
0
  6
Continuous
 62
     7
100
AcDbLine
 10
33.29320353390406
 20
126.7977055123773
 30
0.0
 11
33.34195353390405
 21
126.8789555123773
 31
0.0
  0
LINE
  5
1A2
330
1F
100
AcDbEntity
  8
0
  6
Continuous
 62
     7
100
AcDbLine
 10
32.52945353390405
 20
126.8789555123773
 30
0.0
 11
32.57820353390406
 21
126.7977055123773
 31
0.0
  0
LINE
  5
1A3
330
1F
100
AcDbEntity
  8
0
  6
Continuous
 62
     7
100
AcDbLine
 10
33.27695353390405
 20
127.2852055123773
 30
0.0
 11
33.19570353390407
 21
127.3502055123773
 31
0.0
  0
LINE
  5
1A4
330
1F
100
AcDbEntity
  8
0
  6
Continuous
 62
     7
100
AcDbLine
 10
33.19570353390407
 20
127.3502055123773
 30
0.0
 11
33.22820353390407
 21
127.3827055123773
 31
0.0
  0
LINE
  5
1A5
330
1F
100
AcDbEntity
  8
0
  6
Continuous
 62
     7
100
AcDbLine
 10
33.29320353390406
 20
127.4802055123773
 30
0.0
 11
33.30945353390405
 21
127.5614555123773
 31
0.0
  0
LINE
  5
1A6
330
1F
100
AcDbEntity
  8
0
  6
Continuous
 62
     7
100
AcDbLine
 10
33.17945353390405
 20
127.0739555123773
 30
0.0
 11
33.17945353390405
 21
127.0089555123773
 31
0.0
  0
LINE
  5
1A7
330
1F
100
AcDbEntity
  8
0
  6
Continuous
 62
     7
100
AcDbLine
 10
33.22820353390407
 20
127.3827055123773
 30
0.0
 11
33.29320353390406
 21
127.4802055123773
 31
0.0
  0
LINE
  5
1A8
330
1F
100
AcDbEntity
  8
0
  6
Continuous
 62
     7
100
AcDbLine
 10
33.21195353390405
 20
126.7164555123773
 30
0.0
 11
33.29320353390406
 21
126.7977055123773
 31
0.0
  0
LINE
  5
1A9
330
1F
100
AcDbEntity
  8
0
  6
Continuous
 62
     7
100
AcDbLine
 10
33.11445353390405
 20
126.8789555123773
 30
0.0
 11
33.04945353390406
 21
126.8302055123773
 31
0.0
  0
LINE
  5
1AA
330
1F
100
AcDbEntity
  8
0
  6
Continuous
 62
     7
100
AcDbLine
 10
33.04945353390406
 20
126.8302055123773
 30
0.0
 11
32.96820353390405
 21
126.8139555123773
 31
0.0
  0
LINE
  5
1AB
330
1F
100
AcDbEntity
  8
0
  6
Continuous
 62
     7
100
AcDbLine
 10
32.96820353390405
 20
126.8139555123773
 30
0.0
 11
32.90320353390405
 21
126.8139555123773
 31
0.0
  0
LINE
  5
1AC
330
1F
100
AcDbEntity
  8
0
  6
Continuous
 62
     7
100
AcDbLine
 10
32.90320353390405
 20
126.8139555123773
 30
0.0
 11
32.82195353390407
 21
126.8302055123773
 31
0.0
  0
LINE
  5
1AD
330
1F
100
AcDbEntity
  8
0
  6
Continuous
 62
     7
100
AcDbLine
 10
32.82195353390407
 20
126.8302055123773
 30
0.0
 11
32.75695353390404
 21
126.8789555123773
 31
0.0
  0
LINE
  5
1AE
330
1F
100
AcDbEntity
  8
0
  6
Continuous
 62
     7
100
AcDbLine
 10
32.75695353390404
 20
126.8789555123773
 30
0.0
 11
32.70820353390405
 21
126.9439555123773
 31
0.0
  0
LINE
  5
1AF
330
1F
100
AcDbEntity
  8
0
  6
Continuous
 62
     7
100
AcDbLine
 10
32.70820353390405
 20
126.9439555123773
 30
0.0
 11
32.69195353390404
 21
127.0089555123773
 31
0.0
  0
LINE
  5
1B0
330
1F
100
AcDbEntity
  8
0
  6
Continuous
 62
     7
100
AcDbLine
 10
32.69195353390404
 20
127.0089555123773
 30
0.0
 11
32.69195353390404
 21
127.0739555123773
 31
0.0
  0
LINE
  5
1B1
330
1F
100
AcDbEntity
  8
0
  6
Continuous
 62
     7
100
AcDbLine
 10
32.96820353390405
 20
127.4152055123773
 30
0.0
 11
32.90320353390405
 21
127.4152055123773
 31
0.0
  0
LINE
  5
1B2
330
1F
100
AcDbEntity
  8
0
  6
Continuous
 62
     7
100
AcDbLine
 10
33.04945353390406
 20
127.2527055123773
 30
0.0
 11
33.11445353390405
 21
127.2039555123773
 31
0.0
  0
LINE
  5
1B3
330
1F
100
AcDbEntity
  8
0
  6
Continuous
 62
     7
100
AcDbLine
 10
32.96820353390405
 20
127.2689555123773
 30
0.0
 11
33.04945353390406
 21
127.2527055123773
 31
0.0
  0
LINE
  5
1B4
330
1F
100
AcDbEntity
  8
0
  6
Continuous
 62
     7
100
AcDbLine
 10
32.90320353390405
 20
127.2689555123773
 30
0.0
 11
32.96820353390405
 21
127.2689555123773
 31
0.0
  0
LINE
  5
1B5
330
1F
100
AcDbEntity
  8
0
  6
Continuous
 62
     7
100
AcDbLine
 10
32.90320353390405
 20
127.4152055123773
 30
0.0
 11
32.90320353390405
 21
127.2689555123773
 31
0.0
  0
LINE
  5
1B6
330
1F
100
AcDbEntity
  8
0
  6
Continuous
 62
     7
100
AcDbLine
 10
33.03320353390404
 20
127.4314555123773
 30
0.0
 11
32.96820353390405
 21
127.4152055123773
 31
0.0
  0
LINE
  5
1B7
330
1F
100
AcDbEntity
  8
0
  6
Continuous
 62
     7
100
AcDbLine
 10
32.65945353390404
 20
126.7164555123773
 30
0.0
 11
32.75695353390404
 21
126.6677055123773
 31
0.0
  0
LINE
  5
1B8
330
1F
100
AcDbEntity
  8
0
  6
Continuous
 62
     7
100
AcDbLine
 10
32.57820353390406
 20
126.7977055123773
 30
0.0
 11
32.65945353390404
 21
126.7164555123773
 31
0.0
  0
LINE
  5
1B9
330
1F
100
AcDbEntity
  8
0
  6
Continuous
 62
     7
100
AcDbLine
 10
33.16320353390404
 20
127.1389555123773
 30
0.0
 11
33.17945353390405
 21
127.0739555123773
 31
0.0
  0
LINE
  5
1BA
330
1F
100
AcDbEntity
  8
0
  6
Continuous
 62
     7
100
AcDbLine
 10
33.11445353390405
 20
127.5127055123773
 30
0.0
 11
33.08195353390406
 21
127.4639555123773
 31
0.0
  0
LINE
  5
1BB
330
1F
100
AcDbEntity
  8
0
  6
Continuous
 62
     7
100
AcDbLine
 10
28.34695353390404
 20
125.1352055123774
 30
0.0
 11
29.09695353390407
 21
125.1352055123774
 31
0.0
  0
LINE
  5
1BC
330
1F
100
AcDbEntity
  8
0
  6
Continuous
 62
     7
100
AcDbLine
 10
28.34695353390404
 20
125.1352055123774
 30
0.0
 11
28.34695353390407
 21
128.1352055123774
 31
0.0
  0
LINE
  5
1BD
330
1F
100
AcDbEntity
  8
0
  6
Continuous
 62
     7
100
AcDbLine
 10
29.09695353390407
 20
137.1352055123774
 30
0.0
 11
29.09695353390407
 21
134.1352055123774
 31
0.0
  0
LINE
  5
1BE
330
1F
100
AcDbEntity
  8
0
  6
Continuous
 62
     7
100
AcDbLine
 10
29.09695353390407
 20
131.1352055123774
 30
0.0
 11
29.09695353390407
 21
128.1352055123774
 31
0.0
  0
LINE
  5
1BF
330
1F
100
AcDbEntity
  8
0
  6
Continuous
 62
     7
100
AcDbLine
 10
26.84695353390396
 20
137.6352055123774
 30
0.0
 11
26.84695353390404
 21
121.6352055123774
 31
0.0
  0
LINE
  5
1C0
330
1F
100
AcDbEntity
  8
0
  6
Continuous
 62
     7
100
AcDbLine
 10
31.59695353390407
 20
135.8852055123774
 30
0.0
 11
31.59695353390407
 21
130.6352055123775
 31
0.0
  0
LINE
  5
1C1
330
1F
100
AcDbEntity
  8
0
  6
Continuous
 62
     7
100
AcDbLine
 10
46.09695353390407
 20
130.6352055123774
 30
0.0
 11
41.14695353390405
 21
130.6352055123774
 31
0.0
  0
LINE
  5
1C2
330
1F
100
AcDbEntity
  8
0
  6
Continuous
 62
     7
100
AcDbLine
 10
48.14695353390405
 20
128.1352055123774
 30
0.0
 11
48.14695353390405
 21
131.1352055123774
 31
0.0
  0
LINE
  5
1C3
330
1F
100
AcDbEntity
  8
0
  6
Continuous
 62
     7
100
AcDbLine
 10
48.59695353390407
 20
131.1352055123774
 30
0.0
 11
48.59695353390407
 21
128.1352055123774
 31
0.0
  0
LINE
  5
1C4
330
1F
100
AcDbEntity
  8
0
  6
Continuous
 62
     7
100
AcDbLine
 10
48.34695353390407
 20
128.1352055123774
 30
0.0
 11
48.34695353390407
 21
131.1352055123774
 31
0.0
  0
LINE
  5
1C5
330
1F
100
AcDbEntity
  8
0
  6
Continuous
 62
     7
100
AcDbLine
 10
50.84695353390407
 20
121.6352055123774
 30
0.0
 11
50.84695353390407
 21
137.6352055123775
 31
0.0
  0
LINE
  5
1C6
330
1F
100
AcDbEntity
  8
0
  6
Continuous
 62
     7
100
AcDbLine
 10
46.09695353390407
 20
128.6352055123775
 30
0.0
 11
46.09695353390407
 21
130.6352055123774
 31
0.0
  0
LINE
  5
1C7
330
1F
100
AcDbEntity
  8
0
  6
Continuous
 62
     7
100
AcDbLine
 10
32.88695353390406
 20
126.6352055123773
 30
0.0
 11
32.98445353390406
 21
126.6352055123773
 31
0.0
  0
LINE
  5
1C8
330
1F
100
AcDbEntity
  8
0
  6
Continuous
 62
     7
100
AcDbLine
 10
32.98445353390406
 20
126.6352055123773
 30
0.0
 11
33.11445353390405
 21
126.6677055123773
 31
0.0
  0
LINE
  5
1C9
330
1F
100
AcDbEntity
  8
0
  6
Continuous
 62
     7
100
AcDbLine
 10
32.75695353390404
 20
126.6677055123773
 30
0.0
 11
32.88695353390406
 21
126.6352055123773
 31
0.0
  0
LINE
  5
1CA
330
1F
100
AcDbEntity
  8
0
  6
Continuous
 62
     7
100
AcDbLine
 10
38.04695353390406
 20
122.3852055123774
 30
0.0
 11
39.64695353390405
 21
122.3852055123774
 31
0.0
  0
LINE
  5
1CB
330
1F
100
AcDbEntity
  8
0
  6
Continuous
 62
     7
100
AcDbLine
 10
39.64695353390405
 20
122.3852055123774
 30
0.0
 11
45.09695353390407
 21
122.3852055123774
 31
0.0
  0
LINE
  5
1CC
330
1F
100
AcDbEntity
  8
0
  6
Continuous
 62
     7
100
AcDbLine
 10
32.59695353390407
 20
122.3852055123774
 30
0.0
 11
38.04695353390406
 21
122.3852055123774
 31
0.0
  0
LINE
  5
1CD
330
1F
100
AcDbEntity
  8
0
  6
Continuous
 62
     7
100
AcDbLine
 10
30.84695353390404
 20
117.6352055123774
 30
0.0
 11
46.84695353390407
 21
117.6352055123774
 31
0.0
  0
LINE
  5
1CE
330
1F
100
AcDbEntity
  8
0
  6
Continuous
 62
     7
100
AcDbLine
 10
31.34695353390407
 20
119.8852055123774
 30
0.0
 11
35.84695353390407
 21
119.8852055123774
 31
0.0
  0
LINE
  5
1CF
330
1F
100
AcDbEntity
  8
0
  6
Continuous
 62
     7
100
AcDbLine
 10
35.84695353390407
 20
119.8852055123774
 30
0.0
 11
35.84695353390407
 21
119.1352055123774
 31
0.0
  0
LINE
  5
1D0
330
1F
100
AcDbEntity
  8
0
  6
Continuous
 62
     7
100
AcDbLine
 10
35.84695353390407
 20
119.1352055123774
 30
0.0
 11
41.84695353390407
 21
119.1352055123774
 31
0.0
  0
LINE
  5
1D1
330
1F
100
AcDbEntity
  8
0
  6
Continuous
 62
     7
100
AcDbLine
 10
44.33570353390405
 20
126.6352055123773
 30
0.0
 11
45.19695353390404
 21
126.6352055123773
 31
0.0
  0
LINE
  5
1D2
330
1F
100
AcDbEntity
  8
0
  6
Continuous
 62
     7
100
AcDbLine
 10
46.09695353390407
 20
123.3852055123774
 30
0.0
 11
46.09695353390407
 21
128.6352055123775
 31
0.0
  0
LINE
  5
1D3
330
1F
100
AcDbEntity
  8
0
  6
Continuous
 62
     7
100
AcDbLine
 10
46.09695353390407
 20
128.6352055123775
 30
0.0
 11
41.14695353390405
 21
128.6352055123775
 31
0.0
  0
LINE
  5
1D4
330
1F
100
AcDbEntity
  8
0
  6
Continuous
 62
     7
100
AcDbLine
 10
41.84695353390407
 20
119.8852055123774
 30
0.0
 11
46.34695353390407
 21
119.8852055123774
 31
0.0
  0
LINE
  5
1D5
330
1F
100
AcDbEntity
  8
0
  6
Continuous
 62
     7
100
AcDbLine
 10
41.84695353390407
 20
119.1352055123774
 30
0.0
 11
41.84695353390407
 21
119.8852055123774
 31
0.0
  0
LINE
  5
1D6
330
1F
100
AcDbEntity
  8
0
  6
Continuous
 62
     7
100
AcDbLine
 10
44.48195353390403
 20
127.8052055123773
 30
0.0
 11
44.41695353390404
 21
127.7077055123773
 31
0.0
  0
LINE
  5
1D7
330
1F
100
AcDbEntity
  8
0
  6
Continuous
 62
     7
100
AcDbLine
 10
44.54695353390406
 20
127.8702055123773
 30
0.0
 11
44.48195353390403
 21
127.8052055123773
 31
0.0
  0
LINE
  5
1D8
330
1F
100
AcDbEntity
  8
0
  6
Continuous
 62
     7
100
AcDbLine
 10
44.64445353390403
 20
127.9189555123773
 30
0.0
 11
44.54695353390406
 21
127.8702055123773
 31
0.0
  0
LINE
  5
1D9
330
1F
100
AcDbEntity
  8
0
  6
Continuous
 62
     7
100
AcDbLine
 10
44.41695353390404
 20
127.7077055123773
 30
0.0
 11
44.40070353390405
 21
127.6264555123773
 31
0.0
  0
LINE
  5
1DA
330
1F
100
AcDbEntity
  8
0
  6
Continuous
 62
     7
100
AcDbLine
 10
44.40070353390405
 20
127.6264555123773
 30
0.0
 11
44.40070353390405
 21
127.5614555123773
 31
0.0
  0
LINE
  5
1DB
330
1F
100
AcDbEntity
  8
0
  6
Continuous
 62
     7
100
AcDbLine
 10
44.40070353390405
 20
127.5614555123773
 30
0.0
 11
44.57945353390403
 21
127.5614555123773
 31
0.0
  0
LINE
  5
1DC
330
1F
100
AcDbEntity
  8
0
  6
Continuous
 62
     7
100
AcDbLine
 10
44.61195353390403
 20
127.1714555123773
 30
0.0
 11
44.51445353390403
 21
127.0577055123773
 31
0.0
  0
LINE
  5
1DD
330
1F
100
AcDbEntity
  8
0
  6
Continuous
 62
     7
100
AcDbLine
 10
44.51445353390403
 20
127.0577055123773
 30
0.0
 11
44.43320353390402
 21
126.9602055123773
 31
0.0
  0
LINE
  5
1DE
330
1F
100
AcDbEntity
  8
0
  6
Continuous
 62
     7
100
AcDbLine
 10
44.43320353390402
 20
126.9602055123773
 30
0.0
 11
44.36820353390405
 21
126.8464555123773
 31
0.0
  0
LINE
  5
1DF
330
1F
100
AcDbEntity
  8
0
  6
Continuous
 62
     7
100
AcDbLine
 10
44.36820353390405
 20
126.8464555123773
 30
0.0
 11
44.33570353390405
 21
126.7327055123773
 31
0.0
  0
LINE
  5
1E0
330
1F
100
AcDbEntity
  8
0
  6
Continuous
 62
     7
100
AcDbLine
 10
44.33570353390405
 20
126.7327055123773
 30
0.0
 11
44.33570353390405
 21
126.6352055123773
 31
0.0
  0
LINE
  5
1E1
330
1F
100
AcDbEntity
  8
0
  6
Continuous
 62
     7
100
AcDbLine
 10
44.57945353390403
 20
127.5614555123773
 30
0.0
 11
44.57945353390403
 21
127.6264555123773
 31
0.0
  0
LINE
  5
1E2
330
1F
100
AcDbEntity
  8
0
  6
Continuous
 62
     7
100
AcDbLine
 10
44.57945353390403
 20
127.6264555123773
 30
0.0
 11
44.59570353390404
 21
127.6752055123773
 31
0.0
  0
LINE
  5
1E3
330
1F
100
AcDbEntity
  8
0
  6
Continuous
 62
     7
100
AcDbLine
 10
44.56320353390404
 20
126.7977055123773
 30
0.0
 11
44.59570353390404
 21
126.8952055123773
 31
0.0
  0
LINE
  5
1E4
330
1F
100
AcDbEntity
  8
0
  6
Continuous
 62
     7
100
AcDbLine
 10
45.19695353390404
 20
126.7977055123773
 30
0.0
 11
44.56320353390404
 21
126.7977055123773
 31
0.0
  0
LINE
  5
1E5
330
1F
100
AcDbEntity
  8
0
  6
Continuous
 62
     7
100
AcDbLine
 10
44.87195353390405
 20
127.7564555123773
 30
0.0
 11
44.92070353390403
 21
127.7239555123773
 31
0.0
  0
LINE
  5
1E6
330
1F
100
AcDbEntity
  8
0
  6
Continuous
 62
     7
100
AcDbLine
 10
44.90445353390405
 20
127.9189555123773
 30
0.0
 11
44.82320353390404
 21
127.9352055123773
 31
0.0
  0
LINE
  5
1E7
330
1F
100
AcDbEntity
  8
0
  6
Continuous
 62
     7
100
AcDbLine
 10
44.79070353390404
 20
127.1389555123773
 30
0.0
 11
44.90445353390405
 21
127.2364555123773
 31
0.0
  0
LINE
  5
1E8
330
1F
100
AcDbEntity
  8
0
  6
Continuous
 62
     7
100
AcDbLine
 10
44.95320353390406
 20
127.5127055123773
 30
0.0
 11
44.92070353390403
 21
127.4639555123773
 31
0.0
  0
LINE
  5
1E9
330
1F
100
AcDbEntity
  8
0
  6
Continuous
 62
     7
100
AcDbLine
 10
45.13195353390404
 20
127.4802055123773
 30
0.0
 11
45.14820353390405
 21
127.5614555123773
 31
0.0
  0
LINE
  5
1EA
330
1F
100
AcDbEntity
  8
0
  6
Continuous
 62
     7
100
AcDbLine
 10
45.06695353390404
 20
127.3827055123773
 30
0.0
 11
45.13195353390404
 21
127.4802055123773
 31
0.0
  0
LINE
  5
1EB
330
1F
100
AcDbEntity
  8
0
  6
Continuous
 62
     7
100
AcDbLine
 10
45.03445353390404
 20
127.3502055123773
 30
0.0
 11
45.06695353390404
 21
127.3827055123773
 31
0.0
  0
LINE
  5
1EC
330
1F
100
AcDbEntity
  8
0
  6
Continuous
 62
     7
100
AcDbLine
 10
44.80695353390405
 20
127.7727055123773
 30
0.0
 11
44.87195353390405
 21
127.7564555123773
 31
0.0
  0
LINE
  5
1ED
330
1F
100
AcDbEntity
  8
0
  6
Continuous
 62
     7
100
AcDbLine
 10
44.82320353390404
 20
127.9352055123773
 30
0.0
 11
44.72570353390404
 21
127.9352055123773
 31
0.0
  0
LINE
  5
1EE
330
1F
100
AcDbEntity
  8
0
  6
Continuous
 62
     7
100
AcDbLine
 10
44.92070353390403
 20
127.7239555123773
 30
0.0
 11
44.95320353390406
 21
127.6752055123773
 31
0.0
  0
LINE
  5
1EF
330
1F
100
AcDbEntity
  8
0
  6
Continuous
 62
     7
100
AcDbLine
 10
44.59570353390404
 20
127.6752055123773
 30
0.0
 11
44.62820353390404
 21
127.7239555123773
 31
0.0
  0
LINE
  5
1F0
330
1F
100
AcDbEntity
  8
0
  6
Continuous
 62
     7
100
AcDbLine
 10
44.74195353390405
 20
127.7727055123773
 30
0.0
 11
44.80695353390405
 21
127.7727055123773
 31
0.0
  0
LINE
  5
1F1
330
1F
100
AcDbEntity
  8
0
  6
Continuous
 62
     7
100
AcDbLine
 10
44.67695353390405
 20
127.7564555123773
 30
0.0
 11
44.74195353390405
 21
127.7727055123773
 31
0.0
  0
LINE
  5
1F2
330
1F
100
AcDbEntity
  8
0
  6
Continuous
 62
     7
100
AcDbLine
 10
44.62820353390404
 20
127.7239555123773
 30
0.0
 11
44.67695353390405
 21
127.7564555123773
 31
0.0
  0
LINE
  5
1F3
330
1F
100
AcDbEntity
  8
0
  6
Continuous
 62
     7
100
AcDbLine
 10
44.72570353390404
 20
127.9352055123773
 30
0.0
 11
44.64445353390403
 21
127.9189555123773
 31
0.0
  0
LINE
  5
1F4
330
1F
100
AcDbEntity
  8
0
  6
Continuous
 62
     7
100
AcDbLine
 10
44.70945353390405
 20
127.2527055123773
 30
0.0
 11
44.61195353390403
 21
127.1714555123773
 31
0.0
  0
LINE
  5
1F5
330
1F
100
AcDbEntity
  8
0
  6
Continuous
 62
     7
100
AcDbLine
 10
44.59570353390404
 20
126.8952055123773
 30
0.0
 11
44.67695353390405
 21
127.0089555123773
 31
0.0
  0
LINE
  5
1F6
330
1F
100
AcDbEntity
  8
0
  6
Continuous
 62
     7
100
AcDbLine
 10
44.95320353390406
 20
127.6752055123773
 30
0.0
 11
44.96945353390404
 21
127.6264555123773
 31
0.0
  0
LINE
  5
1F7
330
1F
100
AcDbEntity
  8
0
  6
Continuous
 62
     7
100
AcDbLine
 10
45.00195353390404
 20
127.8702055123773
 30
0.0
 11
44.90445353390405
 21
127.9189555123773
 31
0.0
  0
LINE
  5
1F8
330
1F
100
AcDbEntity
  8
0
  6
Continuous
 62
     7
100
AcDbLine
 10
44.96945353390404
 20
127.6264555123773
 30
0.0
 11
44.96945353390404
 21
127.5614555123773
 31
0.0
  0
LINE
  5
1F9
330
1F
100
AcDbEntity
  8
0
  6
Continuous
 62
     7
100
AcDbLine
 10
45.06695353390404
 20
127.8052055123773
 30
0.0
 11
45.00195353390404
 21
127.8702055123773
 31
0.0
  0
LINE
  5
1FA
330
1F
100
AcDbEntity
  8
0
  6
Continuous
 62
     7
100
AcDbLine
 10
45.13195353390404
 20
127.7077055123773
 30
0.0
 11
45.06695353390404
 21
127.8052055123773
 31
0.0
  0
LINE
  5
1FB
330
1F
100
AcDbEntity
  8
0
  6
Continuous
 62
     7
100
AcDbLine
 10
45.14820353390405
 20
127.5614555123773
 30
0.0
 11
45.14820353390405
 21
127.6264555123773
 31
0.0
  0
LINE
  5
1FC
330
1F
100
AcDbEntity
  8
0
  6
Continuous
 62
     7
100
AcDbLine
 10
44.96945353390404
 20
127.5614555123773
 30
0.0
 11
44.95320353390406
 21
127.5127055123773
 31
0.0
  0
LINE
  5
1FD
330
1F
100
AcDbEntity
  8
0
  6
Continuous
 62
     7
100
AcDbLine
 10
45.14820353390405
 20
127.6264555123773
 30
0.0
 11
45.13195353390404
 21
127.7077055123773
 31
0.0
  0
LINE
  5
1FE
330
1F
100
AcDbEntity
  8
0
  6
Continuous
 62
     7
100
AcDbLine
 10
45.19695353390404
 20
126.6352055123773
 30
0.0
 11
45.19695353390404
 21
126.7977055123773
 31
0.0
  0
LINE
  5
1FF
330
1F
100
AcDbEntity
  8
0
  6
Continuous
 62
     7
100
AcDbLine
 10
49.34695353390407
 20
125.1352055123774
 30
0.0
 11
49.34695353390407
 21
128.1352055123774
 31
0.0
  0
LINE
  5
200
330
1F
100
AcDbEntity
  8
0
  6
Continuous
 62
     7
100
AcDbLine
 10
48.59695353390407
 20
125.1352055123774
 30
0.0
 11
49.34695353390407
 21
125.1352055123774
 31
0.0
  0
LINE
  5
201
330
1F
100
AcDbEntity
  8
0
  6
Continuous
 62
     7
100
AcDbLine
 10
48.59695353390407
 20
122.1352055123774
 30
0.0
 11
48.59695353390407
 21
125.1352055123774
 31
0.0
  0
LINE
  5
202
330
1F
100
AcDbEntity
  8
0
  6
Continuous
 62
     7
100
AcDbLine
 10
48.34695353390407
 20
128.1352055123774
 30
0.0
 11
48.14695353390405
 21
128.1352055123774
 31
0.0
  0
LINE
  5
203
330
1F
100
AcDbEntity
  8
0
  6
Continuous
 62
     7
100
AcDbLine
 10
49.34695353390407
 20
128.1352055123774
 30
0.0
 11
48.59695353390407
 21
128.1352055123774
 31
0.0
  0
LINE
  5
204
330
1F
100
AcDbEntity
  8
0
  6
Continuous
 62
     7
100
AcDbLine
 10
48.59695353390407
 20
128.1352055123774
 30
0.0
 11
48.34695353390407
 21
128.1352055123774
 31
0.0
  0
LINE
  5
205
330
1F
100
AcDbEntity
  8
0
  6
Continuous
 62
     7
100
AcDbLine
 10
44.67695353390405
 20
127.0089555123773
 30
0.0
 11
44.79070353390404
 21
127.1389555123773
 31
0.0
  0
LINE
  5
206
330
1F
100
AcDbEntity
  8
0
  6
Continuous
 62
     7
100
AcDbLine
 10
44.90445353390405
 20
127.2364555123773
 30
0.0
 11
45.03445353390404
 21
127.3502055123773
 31
0.0
  0
LINE
  5
207
330
1F
100
AcDbEntity
  8
0
  6
Continuous
 62
     7
100
AcDbLine
 10
44.92070353390403
 20
127.4639555123773
 30
0.0
 11
44.70945353390405
 21
127.2527055123773
 31
0.0
  0
LINE
  5
208
330
1F
100
AcDbEntity
  8
0
  6
Continuous
 62
     7
100
AcDbLine
 10
40.96827387746373
 20
129.6352055123774
 30
0.0
 11
38.84695353390407
 21
127.5138851688178
 31
0.0
  0
LINE
  5
209
330
1F
100
AcDbEntity
  8
0
  6
Continuous
 62
     7
100
AcDbLine
 10
32.98445353390406
 20
127.9352055123773
 30
0.0
 11
32.88695353390406
 21
127.9352055123773
 31
0.0
  0
LINE
  5
20A
330
1F
100
AcDbEntity
  8
0
  6
Continuous
 62
     7
100
AcDbLine
 10
33.11445353390405
 20
127.6752055123773
 30
0.0
 11
33.13070353390407
 21
127.6264555123773
 31
0.0
  0
LINE
  5
20B
330
1F
100
AcDbEntity
  8
0
  6
Continuous
 62
     7
100
AcDbLine
 10
33.08195353390406
 20
127.7239555123773
 30
0.0
 11
33.11445353390405
 21
127.6752055123773
 31
0.0
  0
LINE
  5
20C
330
1F
100
AcDbEntity
  8
0
  6
Continuous
 62
     7
100
AcDbLine
 10
33.03320353390404
 20
127.7564555123773
 30
0.0
 11
33.08195353390406
 21
127.7239555123773
 31
0.0
  0
LINE
  5
20D
330
1F
100
AcDbEntity
  8
0
  6
Continuous
 62
     7
100
AcDbLine
 10
32.96820353390405
 20
127.7727055123773
 30
0.0
 11
33.03320353390404
 21
127.7564555123773
 31
0.0
  0
LINE
  5
20E
330
1F
100
AcDbEntity
  8
0
  6
Continuous
 62
     7
100
AcDbLine
 10
32.90320353390405
 20
127.7727055123773
 30
0.0
 11
32.96820353390405
 21
127.7727055123773
 31
0.0
  0
LINE
  5
20F
330
1F
100
AcDbEntity
  8
0
  6
Continuous
 62
     7
100
AcDbLine
 10
32.83820353390405
 20
127.7564555123773
 30
0.0
 11
32.90320353390405
 21
127.7727055123773
 31
0.0
  0
LINE
  5
210
330
1F
100
AcDbEntity
  8
0
  6
Continuous
 62
     7
100
AcDbLine
 10
32.78945353390407
 20
127.7239555123773
 30
0.0
 11
32.83820353390405
 21
127.7564555123773
 31
0.0
  0
LINE
  5
211
330
1F
100
AcDbEntity
  8
0
  6
Continuous
 62
     7
100
AcDbLine
 10
32.75695353390404
 20
127.6752055123773
 30
0.0
 11
32.78945353390407
 21
127.7239555123773
 31
0.0
  0
LINE
  5
212
330
1F
100
AcDbEntity
  8
0
  6
Continuous
 62
     7
100
AcDbLine
 10
32.64320353390406
 20
127.8052055123773
 30
0.0
 11
32.57820353390406
 21
127.7077055123773
 31
0.0
  0
LINE
  5
213
330
1F
100
AcDbEntity
  8
0
  6
Continuous
 62
     7
100
AcDbLine
 10
32.70820353390405
 20
127.8702055123773
 30
0.0
 11
32.64320353390406
 21
127.8052055123773
 31
0.0
  0
LINE
  5
214
330
1F
100
AcDbEntity
  8
0
  6
Continuous
 62
     7
100
AcDbLine
 10
32.80570353390405
 20
127.9189555123773
 30
0.0
 11
32.70820353390405
 21
127.8702055123773
 31
0.0
  0
LINE
  5
215
330
1F
100
AcDbEntity
  8
0
  6
Continuous
 62
     7
100
AcDbLine
 10
32.88695353390406
 20
127.9352055123773
 30
0.0
 11
32.80570353390405
 21
127.9189555123773
 31
0.0
  0
LINE
  5
216
330
1F
100
AcDbEntity
  8
0
  6
Continuous
 62
     7
100
AcDbLine
 10
33.06570353390404
 20
127.9189555123773
 30
0.0
 11
32.98445353390406
 21
127.9352055123773
 31
0.0
  0
LINE
  5
217
330
1F
100
AcDbEntity
  8
0
  6
Continuous
 62
     7
100
AcDbLine
 10
33.16320353390404
 20
127.8702055123773
 30
0.0
 11
33.06570353390404
 21
127.9189555123773
 31
0.0
  0
LINE
  5
218
330
1F
100
AcDbEntity
  8
0
  6
Continuous
 62
     7
100
AcDbLine
 10
33.22820353390404
 20
127.8052055123773
 30
0.0
 11
33.16320353390404
 21
127.8702055123773
 31
0.0
  0
LINE
  5
219
330
1F
100
AcDbEntity
  8
0
  6
Continuous
 62
     7
100
AcDbLine
 10
31.59695353390407
 20
130.6352055123775
 30
0.0
 11
31.59695353390407
 21
128.6352055123775
 31
0.0
  0
LINE
  5
21A
330
1F
100
AcDbEntity
  8
0
  6
Continuous
 62
     7
100
AcDbLine
 10
29.34695353390407
 20
128.1352055123774
 30
0.0
 11
29.54695353390406
 21
128.1352055123774
 31
0.0
  0
LINE
  5
21B
330
1F
100
AcDbEntity
  8
0
  6
Continuous
 62
     7
100
AcDbLine
 10
36.54695353390406
 20
128.6352055123775
 30
0.0
 11
31.59695353390407
 21
128.6352055123775
 31
0.0
  0
LINE
  5
21C
330
1F
100
AcDbEntity
  8
0
  6
Continuous
 62
     7
100
AcDbLine
 10
29.34695353390407
 20
131.1352055123774
 30
0.0
 11
29.34695353390407
 21
128.1352055123774
 31
0.0
  0
LINE
  5
21D
330
1F
100
AcDbEntity
  8
0
  6
Continuous
 62
     7
100
AcDbLine
 10
29.09695353390407
 20
128.1352055123774
 30
0.0
 11
29.34695353390407
 21
128.1352055123774
 31
0.0
  0
LINE
  5
21E
330
1F
100
AcDbEntity
  8
0
  6
Continuous
 62
     7
100
AcDbLine
 10
28.34695353390407
 20
128.1352055123774
 30
0.0
 11
29.09695353390407
 21
128.1352055123774
 31
0.0
  0
LINE
  5
21F
330
1F
100
AcDbEntity
  8
0
  6
Continuous
 62
     7
100
AcDbLine
 10
32.56195353390405
 20
127.6264555123773
 30
0.0
 11
32.56195353390405
 21
127.5614555123773
 31
0.0
  0
LINE
  5
220
330
1F
100
AcDbEntity
  8
0
  6
Continuous
 62
     7
100
AcDbLine
 10
32.74070353390405
 20
127.5614555123773
 30
0.0
 11
32.74070353390405
 21
127.6264555123773
 31
0.0
  0
LINE
  5
221
330
1F
100
AcDbEntity
  8
0
  6
Continuous
 62
     7
100
AcDbLine
 10
33.13070353390407
 20
127.6264555123773
 30
0.0
 11
33.13070353390407
 21
127.5614555123773
 31
0.0
  0
LINE
  5
222
330
1F
100
AcDbEntity
  8
0
  6
Continuous
 62
     7
100
AcDbLine
 10
32.74070353390405
 20
127.6264555123773
 30
0.0
 11
32.75695353390404
 21
127.6752055123773
 31
0.0
  0
LINE
  5
223
330
1F
100
AcDbEntity
  8
0
  6
Continuous
 62
     7
100
AcDbLine
 10
32.56195353390405
 20
127.5614555123773
 30
0.0
 11
32.74070353390405
 21
127.5614555123773
 31
0.0
  0
LINE
  5
224
330
1F
100
AcDbEntity
  8
0
  6
Continuous
 62
     7
100
AcDbLine
 10
32.57820353390406
 20
127.7077055123773
 30
0.0
 11
32.56195353390405
 21
127.6264555123773
 31
0.0
  0
LINE
  5
225
330
1F
100
AcDbEntity
  8
0
  6
Continuous
 62
     7
100
AcDbLine
 10
33.29320353390406
 20
127.7077055123773
 30
0.0
 11
33.22820353390404
 21
127.8052055123773
 31
0.0
  0
LINE
  5
226
330
1F
100
AcDbEntity
  8
0
  6
Continuous
 62
     7
100
AcDbLine
 10
33.30945353390405
 20
127.6264555123773
 30
0.0
 11
33.29320353390406
 21
127.7077055123773
 31
0.0
  0
LINE
  5
227
330
1F
100
AcDbEntity
  8
0
  6
Continuous
 62
     7
100
AcDbLine
 10
33.30945353390405
 20
127.5614555123773
 30
0.0
 11
33.30945353390405
 21
127.6264555123773
 31
0.0
  0
LINE
  5
228
330
1F
100
AcDbEntity
  8
0
  6
Continuous
 62
     7
100
AcDbLine
 10
29.54695353390406
 20
128.1352055123774
 30
0.0
 11
29.54695353390406
 21
131.1352055123774
 31
0.0
  0
LINE
  5
229
330
1F
100
AcDbEntity
  8
0
  6
Continuous
 62
     7
100
AcDbLine
 10
36.72563319034441
 20
129.6352055123774
 30
0.0
 11
38.84695353390407
 21
131.7565258559371
 31
0.0
  0
LINE
  5
22A
330
1F
100
AcDbEntity
  8
0
  6
Continuous
 62
     7
100
AcDbLine
 10
36.54695353390406
 20
130.6352055123775
 30
0.0
 11
31.59695353390407
 21
130.6352055123775
 31
0.0
  0
LINE
  5
22B
330
1F
100
AcDbEntity
  8
0
  6
Continuous
 62
     7
100
AcDbLine
 10
32.75778723617509
 20
131.5745407193281
 30
0.0
 11
32.75778723617509
 21
131.4443393574545
 31
0.0
  0
LINE
  5
22C
330
1F
100
AcDbEntity
  8
0
  6
Continuous
 62
     7
100
AcDbLine
 10
32.26842472456394
 20
132.1862438588422
 30
0.0
 11
32.26842472456394
 21
132.0560424969685
 31
0.0
  0
LINE
  5
22D
330
1F
100
AcDbEntity
  8
0
  6
Continuous
 62
     7
100
AcDbLine
 10
32.90020613821665
 20
132.1862438588422
 30
0.0
 11
32.26842472456394
 21
132.1862438588422
 31
0.0
  0
LINE
  5
22E
330
1F
100
AcDbEntity
  8
0
  6
Continuous
 62
     7
100
AcDbLine
 10
33.16929662093918
 20
131.4443393574545
 30
0.0
 11
33.16929662093918
 21
131.5745407193281
 31
0.0
  0
LINE
  5
22F
330
1F
100
AcDbEntity
  8
0
  6
Continuous
 62
     7
100
AcDbLine
 10
33.65865913255041
 20
132.0560424969685
 30
0.0
 11
33.65865913255041
 21
132.1862438588422
 31
0.0
  0
LINE
  5
230
330
1F
100
AcDbEntity
  8
0
  6
Continuous
 62
     7
100
AcDbLine
 10
33.41397787674472
 20
131.8803922890852
 30
0.0
 11
32.51310598036943
 21
131.8803922890852
 31
0.0
  0
LINE
  5
231
330
1F
100
AcDbEntity
  8
0
  6
Continuous
 62
     7
100
AcDbLine
 10
32.51310598036943
 20
131.8803922890852
 30
0.0
 11
32.51310598036943
 21
131.7501909272115
 31
0.0
  0
LINE
  5
232
330
1F
100
AcDbEntity
  8
0
  6
Continuous
 62
     7
100
AcDbLine
 10
32.51310598036943
 20
131.7501909272115
 30
0.0
 11
33.41397787674472
 21
131.7501909272115
 31
0.0
  0
LINE
  5
233
330
1F
100
AcDbEntity
  8
0
  6
Continuous
 62
     7
100
AcDbLine
 10
33.41397787674472
 20
131.7501909272115
 30
0.0
 11
33.41397787674472
 21
131.8803922890852
 31
0.0
  0
LINE
  5
234
330
1F
100
AcDbEntity
  8
0
  6
Continuous
 62
     7
100
AcDbLine
 10
33.16929662093918
 20
131.5745407193281
 30
0.0
 11
32.75778723617509
 21
131.5745407193281
 31
0.0
  0
LINE
  5
235
330
1F
100
AcDbEntity
  8
0
  6
Continuous
 62
     7
100
AcDbLine
 10
32.26842472456394
 20
132.0560424969685
 30
0.0
 11
33.65865913255041
 21
132.0560424969685
 31
0.0
  0
LINE
  5
236
330
1F
100
AcDbEntity
  8
0
  6
Continuous
 62
     7
100
AcDbLine
 10
32.75778723617509
 20
131.4443393574545
 30
0.0
 11
33.16929662093918
 21
131.4443393574545
 31
0.0
  0
LINE
  5
237
330
1F
100
AcDbEntity
  8
0
  6
Continuous
 62
     7
100
AcDbLine
 10
32.90020613821665
 20
132.7727884590627
 30
0.0
 11
32.90020613821665
 21
132.1862438588422
 31
0.0
  0
LINE
  5
238
330
1F
100
AcDbEntity
  8
0
  6
Continuous
 62
     7
100
AcDbLine
 10
33.03040750009041
 20
132.7727884590627
 30
0.0
 11
32.90020613821665
 21
132.7727884590627
 31
0.0
  0
LINE
  5
239
330
1F
100
AcDbEntity
  8
0
  6
Continuous
 62
     7
100
AcDbLine
 10
33.03040750009041
 20
132.1862438588422
 30
0.0
 11
33.03040750009041
 21
132.7727884590627
 31
0.0
  0
LINE
  5
23A
330
1F
100
AcDbEntity
  8
0
  6
Continuous
 62
     7
100
AcDbLine
 10
33.65865913255041
 20
132.1862438588422
 30
0.0
 11
33.03040750009041
 21
132.1862438588422
 31
0.0
  0
LINE
  5
23B
330
1F
100
AcDbEntity
  8
0
  6
Continuous
 62
     7
100
AcDbLine
 10
28.34695353390407
 20
134.1352055123774
 30
0.0
 11
28.34695353390407
 21
131.1352055123774
 31
0.0
  0
LINE
  5
23C
330
1F
100
AcDbEntity
  8
0
  6
Continuous
 62
     7
100
AcDbLine
 10
29.09695353390407
 20
134.1352055123774
 30
0.0
 11
28.34695353390407
 21
134.1352055123774
 31
0.0
  0
LINE
  5
23D
330
1F
100
AcDbEntity
  8
0
  6
Continuous
 62
     7
100
AcDbLine
 10
29.09695353390407
 20
131.1352055123774
 30
0.0
 11
29.34695353390407
 21
131.1352055123774
 31
0.0
  0
LINE
  5
23E
330
1F
100
AcDbEntity
  8
0
  6
Continuous
 62
     7
100
AcDbLine
 10
29.34695353390407
 20
131.1352055123774
 30
0.0
 11
29.54695353390406
 21
131.1352055123774
 31
0.0
  0
LINE
  5
23F
330
1F
100
AcDbEntity
  8
0
  6
Continuous
 62
     7
100
AcDbLine
 10
28.34695353390407
 20
131.1352055123774
 30
0.0
 11
29.09695353390407
 21
131.1352055123774
 31
0.0
  0
LINE
  5
240
330
1F
100
AcDbEntity
  8
0
  6
Continuous
 62
     7
100
AcDbLine
 10
38.04695353390406
 20
135.2727539627177
 30
0.0
 11
38.04695353390406
 21
132.1352055123775
 31
0.0
  0
LINE
  5
241
330
1F
100
AcDbEntity
  8
0
  6
Continuous
 62
     7
100
AcDbLine
 10
38.84695353390407
 20
127.5138851688178
 30
0.0
 11
36.72563319034441
 21
129.6352055123774
 31
0.0
  0
LINE
  5
242
330
1F
100
AcDbEntity
  8
0
  6
Continuous
 62
     7
100
AcDbLine
 10
46.09695353390407
 20
130.6352055123774
 30
0.0
 11
46.09695353390407
 21
135.8852055123774
 31
0.0
  0
LINE
  5
243
330
1F
100
AcDbEntity
  8
0
  6
Continuous
 62
     7
100
AcDbLine
 10
48.59695353390407
 20
134.1352055123774
 30
0.0
 11
48.59695353390407
 21
137.1352055123774
 31
0.0
  0
LINE
  5
244
330
1F
100
AcDbEntity
  8
0
  6
Continuous
 62
     7
100
AcDbLine
 10
49.34695353390407
 20
134.1352055123774
 30
0.0
 11
48.59695353390407
 21
134.1352055123774
 31
0.0
  0
LINE
  5
245
330
1F
100
AcDbEntity
  8
0
  6
Continuous
 62
     7
100
AcDbLine
 10
49.34695353390407
 20
131.1352055123774
 30
0.0
 11
49.34695353390407
 21
134.1352055123774
 31
0.0
  0
LINE
  5
246
330
1F
100
AcDbEntity
  8
0
  6
Continuous
 62
     7
100
AcDbLine
 10
39.64695353390405
 20
132.1352055123774
 30
0.0
 11
39.64695353390405
 21
135.2727539627177
 31
0.0
  0
LINE
  5
247
330
1F
100
AcDbEntity
  8
0
  6
Continuous
 62
     7
100
AcDbLine
 10
48.59695353390407
 20
131.1352055123774
 30
0.0
 11
48.34695353390407
 21
131.1352055123774
 31
0.0
  0
LINE
  5
248
330
1F
100
AcDbEntity
  8
0
  6
Continuous
 62
     7
100
AcDbLine
 10
48.34695353390407
 20
131.1352055123774
 30
0.0
 11
48.14695353390405
 21
131.1352055123774
 31
0.0
  0
LINE
  5
249
330
1F
100
AcDbEntity
  8
0
  6
Continuous
 62
     7
100
AcDbLine
 10
49.34695353390407
 20
131.1352055123774
 30
0.0
 11
48.59695353390407
 21
131.1352055123774
 31
0.0
  0
LINE
  5
24A
330
1F
100
AcDbEntity
  8
0
  6
Continuous
 62
     7
100
AcDbLine
 10
44.80195353390405
 20
132.5214555123774
 30
0.0
 11
44.75320353390407
 21
132.4727055123774
 31
0.0
  0
LINE
  5
24B
330
1F
100
AcDbEntity
  8
0
  6
Continuous
 62
     7
100
AcDbLine
 10
44.75320353390407
 20
132.4727055123774
 30
0.0
 11
44.68820353390404
 21
132.4402055123774
 31
0.0
  0
LINE
  5
24C
330
1F
100
AcDbEntity
  8
0
  6
Continuous
 62
     7
100
AcDbLine
 10
44.68820353390404
 20
132.4402055123774
 30
0.0
 11
44.63945353390406
 21
132.4239555123774
 31
0.0
  0
LINE
  5
24D
330
1F
100
AcDbEntity
  8
0
  6
Continuous
 62
     7
100
AcDbLine
 10
44.55820353390405
 20
132.4077055123774
 30
0.0
 11
44.52570353390405
 21
132.4077055123774
 31
0.0
  0
LINE
  5
24E
330
1F
100
AcDbEntity
  8
0
  6
Continuous
 62
     7
100
AcDbLine
 10
44.63945353390406
 20
132.4239555123774
 30
0.0
 11
44.55820353390405
 21
132.4077055123774
 31
0.0
  0
LINE
  5
24F
330
1F
100
AcDbEntity
  8
0
  6
Continuous
 62
     7
100
AcDbLine
 10
44.52570353390405
 20
132.4077055123774
 30
0.0
 11
44.52570353390405
 21
132.2777055123774
 31
0.0
  0
LINE
  5
250
330
1F
100
AcDbEntity
  8
0
  6
Continuous
 62
     7
100
AcDbLine
 10
44.52570353390405
 20
132.2777055123774
 30
0.0
 11
44.83445353390405
 21
132.2777055123774
 31
0.0
  0
LINE
  5
251
330
1F
100
AcDbEntity
  8
0
  6
Continuous
 62
     7
100
AcDbLine
 10
44.85070353390404
 20
132.5864555123774
 30
0.0
 11
44.80195353390405
 21
132.5214555123774
 31
0.0
  0
LINE
  5
252
330
1F
100
AcDbEntity
  8
0
  6
Continuous
 62
     7
100
AcDbLine
 10
44.86695353390405
 20
132.6352055123774
 30
0.0
 11
44.85070353390404
 21
132.5864555123774
 31
0.0
  0
LINE
  5
253
330
1F
100
AcDbEntity
  8
0
  6
Continuous
 62
     7
100
AcDbLine
 10
44.99695353390405
 20
132.6352055123774
 30
0.0
 11
44.86695353390405
 21
132.6352055123774
 31
0.0
  0
LINE
  5
254
330
1F
100
AcDbEntity
  8
0
  6
Continuous
 62
     7
100
AcDbLine
 10
44.83445353390405
 20
131.3352055123774
 30
0.0
 11
44.99695353390405
 21
131.3352055123774
 31
0.0
  0
LINE
  5
255
330
1F
100
AcDbEntity
  8
0
  6
Continuous
 62
     7
100
AcDbLine
 10
44.83445353390405
 20
132.2777055123774
 30
0.0
 11
44.83445353390405
 21
131.3352055123774
 31
0.0
  0
LINE
  5
256
330
1F
100
AcDbEntity
  8
0
  6
Continuous
 62
     7
100
AcDbLine
 10
44.99695353390405
 20
131.3352055123774
 30
0.0
 11
44.99695353390405
 21
132.6352055123774
 31
0.0
  0
LINE
  5
257
330
1F
100
AcDbEntity
  8
0
  6
Continuous
 62
     7
100
AcDbLine
 10
38.84695353390407
 20
131.7565258559371
 30
0.0
 11
40.96827387746373
 21
129.6352055123774
 31
0.0
  0
LINE
  5
258
330
1F
100
AcDbEntity
  8
1
  6
DOT_CENTER
 62
     7
100
AcDbLine
 10
35.97695353390401
 20
125.8852055123775
 30
0.0
 11
34.21695353390402
 21
125.8852055123775
 31
0.0
  0
LINE
  5
259
330
1F
100
AcDbEntity
  8
1
  6
DOT_CENTER
 62
     7
100
AcDbLine
 10
35.09695353390401
 20
126.7652055123775
 30
0.0
 11
35.09695353390401
 21
125.0052055123775
 31
0.0
  0
LINE
  5
25A
330
1F
100
AcDbEntity
  8
1
  6
DOT_CENTER
 62
     7
100
AcDbLine
 10
35.97695353390409
 20
133.385205512377
 30
0.0
 11
34.21695353390408
 21
133.385205512377
 31
0.0
  0
LINE
  5
25B
330
1F
100
AcDbEntity
  8
1
  6
DOT_CENTER
 62
     7
100
AcDbLine
 10
35.09695353390407
 20
134.265205512377
 30
0.0
 11
35.09695353390407
 21
132.505205512377
 31
0.0
  0
LINE
  5
25C
330
1F
100
AcDbEntity
  8
1
  6
DOT_CENTER
 62
     7
100
AcDbLine
 10
43.47695353390375
 20
132.8852055123775
 30
0.0
 11
41.71695353390379
 21
132.8852055123775
 31
0.0
  0
LINE
  5
25D
330
1F
100
AcDbEntity
  8
1
  6
DOT_CENTER
 62
     7
100
AcDbLine
 10
42.59695353390376
 20
133.7652055123775
 30
0.0
 11
42.59695353390376
 21
132.0052055123775
 31
0.0
  0
LINE
  5
25E
330
1F
100
AcDbEntity
  8
1
  6
DOT_CENTER
 62
     7
100
AcDbLine
 10
34.06254958210903
 20
132.119378287309
 30
0.0
 11
31.8645342750055
 21
132.119378287309
 31
0.0
  0
LINE
  5
25F
330
1F
100
AcDbEntity
  8
1
  6
DOT_CENTER
 62
     7
100
AcDbLine
 10
32.96354192855725
 20
133.2183859408608
 30
0.0
 11
32.96354192855725
 21
131.0203706337572
 31
0.0
  0
LINE
  5
260
330
1F
100
AcDbEntity
  8
1
  6
DOT_CENTER
 62
     7
100
AcDbLine
 10
40.27695353390408
 20
129.6352055123774
 30
0.0
 11
37.41695353390406
 21
129.6352055123774
 31
0.0
  0
LINE
  5
261
330
1F
100
AcDbEntity
  8
1
  6
DOT_CENTER
 62
     7
100
AcDbLine
 10
38.84695353390407
 20
131.0652055123774
 30
0.0
 11
38.84695353390407
 21
128.2052055123774
 31
0.0
  0
LINE
  5
262
330
1F
100
AcDbEntity
  8
1
  6
DOT_CENTER
 62
     7
100
AcDbLine
 10
43.47695353390367
 20
125.8852055123774
 30
0.0
 11
41.71695353390368
 21
125.8852055123774
 31
0.0
  0
LINE
  5
263
330
1F
100
AcDbEntity
  8
1
  6
DOT_CENTER
 62
     7
100
AcDbLine
 10
42.59695353390367
 20
126.7652055123774
 30
0.0
 11
42.59695353390367
 21
125.0052055123774
 31
0.0
  0
LINE
  5
264
330
1F
100
AcDbEntity
  8
1
  6
DOT_CENTER
 62
     7
100
AcDbLine
 10
38.84695353390404
 20
141.6852055123774
 30
0.0
 11
38.84695353390404
 21
141.6352055123774
 31
0.0
  0
LINE
  5
265
330
1F
100
AcDbEntity
  8
0
  6
Continuous
 62
     7
100
AcDbLine
 10
38.6259193172539
 20
32.31431344654794
 30
0.0
 11
38.6259193172539
 21
32.48627213552621
 31
0.0
  0
LINE
  5
266
330
1F
100
AcDbEntity
  8
0
  6
Continuous
 62
     7
100
AcDbLine
 10
38.26332812829611
 20
32.41224418897796
 30
0.0
 11
38.26332812829611
 21
32.53767818047368
 31
0.0
  0
LINE
  5
267
330
1F
100
AcDbEntity
  8
0
  6
Continuous
 62
     7
100
AcDbLine
 10
40.23418931725391
 20
32.31431344654794
 30
0.0
 11
40.23418931725391
 21
32.48627213552622
 31
0.0
  0
LINE
  5
268
330
1F
100
AcDbEntity
  8
0
  6
Continuous
 62
     7
100
AcDbLine
 10
40.59678050621173
 20
32.66036576565018
 30
0.0
 11
40.59678050621173
 21
32.41224418897796
 31
0.0
  0
LINE
  5
269
330
1F
100
AcDbEntity
  8
0
  6
Continuous
 62
     7
100
AcDbLine
 10
36.63005431725392
 20
33.00653535898297
 30
0.0
 11
41.10680339900586
 21
33.00653535898297
 31
0.0
  0
LINE
  5
26A
330
1F
100
AcDbEntity
  8
0
  6
Continuous
 62
     7
100
AcDbLine
 10
42.23005431725392
 20
33.00653535898297
 30
0.0
 11
42.23005431725392
 21
33.35653535898297
 31
0.0
  0
LINE
  5
26B
330
1F
100
AcDbEntity
  8
0
  6
Continuous
 62
     7
100
AcDbLine
 10
41.67248882395509
 20
33.00653535898297
 30
0.0
 11
42.23005431725392
 21
33.00653535898297
 31
0.0
  0
LINE
  5
26C
330
1F
100
AcDbEntity
  8
0
  6
Continuous
 62
     7
100
AcDbLine
 10
41.67248882395509
 20
33.00653535898297
 30
0.0
 11
41.67248882395509
 21
33.18492230930217
 31
0.0
  0
LINE
  5
26D
330
1F
100
AcDbEntity
  8
0
  6
Continuous
 62
     7
100
AcDbLine
 10
41.10680339900586
 20
33.00653535898297
 30
0.0
 11
41.10680339900586
 21
33.18492230930217
 31
0.0
  0
LINE
  5
26E
330
1F
100
AcDbEntity
  8
0
  6
Continuous
 62
     7
100
AcDbLine
 10
43.11275212342144
 20
43.93149898566173
 30
0.0
 11
41.0649617588864
 21
42.02190357748548
 31
0.0
  0
LINE
  5
26F
330
1F
100
AcDbEntity
  8
0
  6
Continuous
 62
     7
100
AcDbLine
 10
43.11275212342144
 20
43.93149898566173
 30
0.0
 11
44.68134835156394
 21
42.24938547193762
 31
0.0
  0
LINE
  5
270
330
1F
100
AcDbEntity
  8
0
  6
Continuous
 62
     7
100
AcDbLine
 10
42.63355798701915
 20
40.33979006377477
 30
0.0
 11
41.0649617588864
 21
42.02190357748548
 31
0.0
  0
LINE
  5
271
330
1F
100
AcDbEntity
  8
0
  6
Continuous
 62
     7
100
AcDbLine
 10
41.03005431725393
 20
35.30653535898297
 30
0.0
 11
42.43005431725396
 21
35.30653535898297
 31
0.0
  0
LINE
  5
272
330
1F
100
AcDbEntity
  8
0
  6
Continuous
 62
     7
100
AcDbLine
 10
37.83005431725394
 20
36.35653535898301
 30
0.0
 11
36.43005431725393
 21
36.35653535898301
 31
0.0
  0
LINE
  5
273
330
1F
100
AcDbEntity
  8
0
  6
Continuous
 62
     7
100
AcDbLine
 10
44.23005431725395
 20
34.55653535898298
 30
0.0
 11
46.93005431725393
 21
34.55653535898298
 31
0.0
  0
LINE
  5
274
330
1F
100
AcDbEntity
  8
0
  6
Continuous
 62
     7
100
AcDbLine
 10
44.23005431725395
 20
34.55653535898298
 30
0.0
 11
42.43005431725396
 21
34.55653535898298
 31
0.0
  0
LINE
  5
275
330
1F
100
AcDbEntity
  8
0
  6
Continuous
 62
     7
100
AcDbLine
 10
45.9682204693855
 20
42.06991460108742
 30
0.0
 11
45.80572046938551
 21
42.06991460108742
 31
0.0
  0
LINE
  5
276
330
1F
100
AcDbEntity
  8
0
  6
Continuous
 62
     7
100
AcDbLine
 10
45.9682204693855
 20
41.12741460108742
 30
0.0
 11
45.9682204693855
 21
42.06991460108742
 31
0.0
  0
LINE
  5
277
330
1F
100
AcDbEntity
  8
0
  6
Continuous
 62
     7
100
AcDbLine
 10
45.9357204693855
 20
40.76991460108742
 30
0.0
 11
45.95197046938552
 21
40.81866460108741
 31
0.0
  0
LINE
  5
278
330
1F
100
AcDbEntity
  8
0
  6
Continuous
 62
     7
100
AcDbLine
 10
45.80572046938551
 20
42.06991460108742
 30
0.0
 11
45.80572046938551
 21
40.76991460108742
 31
0.0
  0
LINE
  5
279
330
1F
100
AcDbEntity
  8
0
  6
Continuous
 62
     7
100
AcDbLine
 10
44.68134835156394
 20
42.24938547193762
 30
0.0
 11
42.63355798701915
 21
40.33979006377477
 31
0.0
  0
LINE
  5
27A
330
1F
100
AcDbEntity
  8
0
  6
Continuous
 62
     7
100
AcDbLine
 10
46.0007204693855
 20
40.88366460108741
 30
0.0
 11
46.04947046938548
 21
40.93241460108742
 31
0.0
  0
LINE
  5
27B
330
1F
100
AcDbEntity
  8
0
  6
Continuous
 62
     7
100
AcDbLine
 10
46.04947046938548
 20
40.93241460108742
 30
0.0
 11
46.11447046938551
 21
40.96491460108742
 31
0.0
  0
LINE
  5
27C
330
1F
100
AcDbEntity
  8
0
  6
Continuous
 62
     7
100
AcDbLine
 10
45.80572046938551
 20
40.76991460108742
 30
0.0
 11
45.9357204693855
 21
40.76991460108742
 31
0.0
  0
LINE
  5
27D
330
1F
100
AcDbEntity
  8
0
  6
Continuous
 62
     7
100
AcDbLine
 10
46.2444704693855
 20
40.99741460108741
 30
0.0
 11
46.2769704693855
 21
40.99741460108741
 31
0.0
  0
LINE
  5
27E
330
1F
100
AcDbEntity
  8
0
  6
Continuous
 62
     7
100
AcDbLine
 10
46.11447046938551
 20
40.96491460108742
 30
0.0
 11
46.16322046938552
 21
40.98116460108742
 31
0.0
  0
LINE
  5
27F
330
1F
100
AcDbEntity
  8
0
  6
Continuous
 62
     7
100
AcDbLine
 10
46.16322046938552
 20
40.98116460108742
 30
0.0
 11
46.2444704693855
 21
40.99741460108741
 31
0.0
  0
LINE
  5
280
330
1F
100
AcDbEntity
  8
0
  6
Continuous
 62
     7
100
AcDbLine
 10
45.95197046938552
 20
40.81866460108741
 30
0.0
 11
46.0007204693855
 21
40.88366460108741
 31
0.0
  0
LINE
  5
281
330
1F
100
AcDbEntity
  8
0
  6
Continuous
 62
     7
100
AcDbLine
 10
48.73005431725395
 20
43.456535358983
 30
0.0
 11
48.73005431725397
 21
43.556535358983
 31
0.0
  0
LINE
  5
282
330
1F
100
AcDbEntity
  8
0
  6
Continuous
 62
     7
100
AcDbLine
 10
48.43005431725393
 20
43.456535358983
 30
0.0
 11
48.73005431725395
 21
43.456535358983
 31
0.0
  0
LINE
  5
283
330
1F
100
AcDbEntity
  8
0
  6
Continuous
 62
     7
100
AcDbLine
 10
48.73005431725395
 20
43.456535358983
 30
0.0
 11
48.93005431725396
 21
43.456535358983
 31
0.0
  0
LINE
  5
284
330
1F
100
AcDbEntity
  8
0
  6
Continuous
 62
     7
100
AcDbLine
 10
46.2769704693855
 20
41.12741460108742
 30
0.0
 11
45.9682204693855
 21
41.12741460108742
 31
0.0
  0
LINE
  5
285
330
1F
100
AcDbEntity
  8
0
  6
Continuous
 62
     7
100
AcDbLine
 10
42.43005431725396
 20
34.55653535898298
 30
0.0
 11
42.43005431725396
 21
35.30653535898297
 31
0.0
  0
LINE
  5
286
330
1F
100
AcDbEntity
  8
0
  6
Continuous
 62
     7
100
AcDbLine
 10
49.93005431725396
 20
43.556535358983
 30
0.0
 11
49.93005431725393
 21
43.456535358983
 31
0.0
  0
LINE
  5
287
330
1F
100
AcDbEntity
  8
0
  6
Continuous
 62
     7
100
AcDbLine
 10
49.93005431725393
 20
43.456535358983
 30
0.0
 11
49.93005431725393
 21
37.556535358983
 31
0.0
  0
LINE
  5
288
330
1F
100
AcDbEntity
  8
0
  6
Continuous
 62
     7
100
AcDbLine
 10
46.2769704693855
 20
40.99741460108741
 30
0.0
 11
46.2769704693855
 21
41.12741460108742
 31
0.0
  0
LINE
  5
289
330
1F
100
AcDbEntity
  8
0
  6
Continuous
 62
     7
100
AcDbLine
 10
46.37467789906322
 20
36.03467429252025
 30
0.0
 11
48.71500974424455
 21
38.21706904472025
 31
0.0
  0
LINE
  5
28A
330
1F
100
AcDbEntity
  8
0
  6
Continuous
 62
     7
100
AcDbLine
 10
48.93005431725396
 20
43.456535358983
 30
0.0
 11
48.93005431725396
 21
43.556535358983
 31
0.0
  0
LINE
  5
28B
330
1F
100
AcDbEntity
  8
0
  6
Continuous
 62
     7
100
AcDbLine
 10
48.93005431725396
 20
43.456535358983
 30
0.0
 11
49.93005431725393
 21
43.456535358983
 31
0.0
  0
LINE
  5
28C
330
1F
100
AcDbEntity
  8
0
  6
Continuous
 62
     7
100
AcDbLine
 10
48.73005431725397
 20
43.556535358983
 30
0.0
 11
49.93005431725396
 21
43.556535358983
 31
0.0
  0
LINE
  5
28D
330
1F
100
AcDbEntity
  8
0
  6
Continuous
 62
     7
100
AcDbLine
 10
46.46441515603831
 20
40.6305362600635
 30
0.0
 11
44.12408331085698
 21
38.44814150786351
 31
0.0
  0
LINE
  5
28E
330
1F
100
AcDbEntity
  8
0
  6
Continuous
 62
     7
100
AcDbLine
 10
48.71500974424455
 20
38.21706904472025
 30
0.0
 11
46.46441515603831
 21
40.6305362600635
 31
0.0
  0
LINE
  5
28F
330
1F
100
AcDbEntity
  8
0
  6
Continuous
 62
     7
100
AcDbLine
 10
44.12408331085698
 20
38.44814150786351
 30
0.0
 11
46.37467789906322
 21
36.03467429252025
 31
0.0
  0
LINE
  5
290
330
1F
100
AcDbEntity
  8
0
  6
Continuous
 62
     7
100
AcDbLine
 10
30.43005431725393
 20
43.45653535898299
 30
0.0
 11
30.43005431725393
 21
46.65653535898299
 31
0.0
  0
LINE
  5
291
330
1F
100
AcDbEntity
  8
0
  6
Continuous
 62
     7
100
AcDbLine
 10
32.93154493342976
 20
47.19656225882174
 30
0.0
 11
35.27894082574144
 21
45.84229539787268
 31
0.0
  0
LINE
  5
292
330
1F
100
AcDbEntity
  8
0
  6
Continuous
 62
     7
100
AcDbLine
 10
35.20398245771798
 20
45.71236755996541
 30
0.0
 11
32.93154493342979
 21
47.02338920859323
 31
0.0
  0
LINE
  5
293
330
1F
100
AcDbEntity
  8
0
  6
Continuous
 62
     7
100
AcDbLine
 10
35.27894082574142
 20
45.50448301931376
 30
0.0
 11
32.93154493342979
 21
44.15021615836474
 31
0.0
  0
LINE
  5
294
330
1F
100
AcDbEntity
  8
0
  6
Continuous
 62
     7
100
AcDbLine
 10
32.93154493342979
 20
47.02338920859323
 30
0.0
 11
30.65910740914148
 21
45.71236755996542
 31
0.0
  0
LINE
  5
295
330
1F
100
AcDbEntity
  8
0
  6
Continuous
 62
     7
100
AcDbLine
 10
30.58414904111808
 20
45.84229539787268
 30
0.0
 11
32.93154493342976
 21
47.19656225882174
 31
0.0
  0
LINE
  5
296
330
1F
100
AcDbEntity
  8
0
  6
Continuous
 62
     7
100
AcDbLine
 10
32.93154493342979
 20
44.15021615836474
 30
0.0
 11
30.58414904111808
 21
45.50448301931377
 31
0.0
  0
LINE
  5
297
330
1F
100
AcDbEntity
  8
0
  6
Continuous
 62
     7
100
AcDbLine
 10
36.61593637586873
 20
44.3022197169157
 30
0.0
 11
34.16355845179334
 21
42.09408871593148
 31
0.0
  0
LINE
  5
298
330
1F
100
AcDbEntity
  8
0
  6
Continuous
 62
     7
100
AcDbLine
 10
38.69024125558119
 20
41.99847075793579
 30
0.0
 11
36.61593637586873
 21
44.3022197169157
 31
0.0
  0
LINE
  5
299
330
1F
100
AcDbEntity
  8
0
  6
Continuous
 62
     7
100
AcDbLine
 10
28.93005431725393
 20
43.45653535898299
 30
0.0
 11
28.93005431725393
 21
43.556535358983
 31
0.0
  0
LINE
  5
29A
330
1F
100
AcDbEntity
  8
0
  6
Continuous
 62
     7
100
AcDbLine
 10
28.93005431725393
 20
43.45653535898299
 30
0.0
 11
28.93005431725393
 21
37.556535358983
 31
0.0
  0
LINE
  5
29B
330
1F
100
AcDbEntity
  8
0
  6
Continuous
 62
     7
100
AcDbLine
 10
28.93005431725393
 20
46.556535358983
 30
0.0
 11
28.93005431725393
 21
43.556535358983
 31
0.0
  0
LINE
  5
29C
330
1F
100
AcDbEntity
  8
0
  6
Continuous
 62
     7
100
AcDbLine
 10
27.43005431725385
 20
37.05653535898296
 30
0.0
 11
27.43005431725393
 21
53.05653535898303
 31
0.0
  0
LINE
  5
29D
330
1F
100
AcDbEntity
  8
0
  6
Continuous
 62
     7
100
AcDbLine
 10
46.93005431725393
 20
55.55653535898298
 30
0.0
 11
31.93005431725393
 21
55.55653535898298
 31
0.0
  0
LINE
  5
29E
330
1F
100
AcDbEntity
  8
0
  6
Continuous
 62
     7
100
AcDbLine
 10
44.24071448903374
 20
52.12993723055978
 30
0.0
 11
46.50345618883068
 21
49.86719553076283
 31
0.0
  0
LINE
  5
29F
330
1F
100
AcDbEntity
  8
0
  6
Continuous
 62
     7
100
AcDbLine
 10
31.43005431725393
 20
57.056535358983
 30
0.0
 11
47.43005431725396
 21
57.05653535898298
 31
0.0
  0
LINE
  5
2A0
330
1F
100
AcDbEntity
  8
0
  6
Continuous
 62
     7
100
AcDbLine
 10
46.57416686694936
 20
54.46338960847538
 30
0.0
 11
44.24071448903374
 21
52.12993723055978
 31
0.0
  0
LINE
  5
2A1
330
1F
100
AcDbEntity
  8
0
  6
Continuous
 62
     7
100
AcDbLine
 10
46.49094388651972
 20
49.65690094091546
 30
0.0
 11
45.6296938865197
 21
49.65690094091546
 31
0.0
  0
LINE
  5
2A2
330
1F
100
AcDbEntity
  8
0
  6
Continuous
 62
     7
100
AcDbLine
 10
45.6296938865197
 20
49.65690094091546
 30
0.0
 11
45.6296938865197
 21
49.49440094091546
 31
0.0
  0
LINE
  5
2A3
330
1F
100
AcDbEntity
  8
0
  6
Continuous
 62
     7
100
AcDbLine
 10
45.6946938865197
 20
48.81190094091546
 30
0.0
 11
45.67844388651972
 21
48.73065094091547
 31
0.0
  0
LINE
  5
2A4
330
1F
100
AcDbEntity
  8
0
  6
Continuous
 62
     7
100
AcDbLine
 10
45.67844388651972
 20
48.73065094091547
 30
0.0
 11
45.67844388651972
 21
48.66565094091546
 31
0.0
  0
LINE
  5
2A5
330
1F
100
AcDbEntity
  8
0
  6
Continuous
 62
     7
100
AcDbLine
 10
45.67844388651972
 20
48.66565094091546
 30
0.0
 11
45.6946938865197
 21
48.58440094091546
 31
0.0
  0
LINE
  5
2A6
330
1F
100
AcDbEntity
  8
0
  6
Continuous
 62
     7
100
AcDbLine
 10
45.6946938865197
 20
48.58440094091546
 30
0.0
 11
45.7596938865197
 21
48.48690094091546
 31
0.0
  0
LINE
  5
2A7
330
1F
100
AcDbEntity
  8
0
  6
Continuous
 62
     7
100
AcDbLine
 10
45.6296938865197
 20
49.49440094091546
 30
0.0
 11
46.26344388651972
 21
49.49440094091546
 31
0.0
  0
LINE
  5
2A8
330
1F
100
AcDbEntity
  8
0
  6
Continuous
 62
     7
100
AcDbLine
 10
46.11719388651972
 20
49.03940094091546
 30
0.0
 11
46.21469388651974
 21
49.12065094091547
 31
0.0
  0
LINE
  5
2A9
330
1F
100
AcDbEntity
  8
0
  6
Continuous
 62
     7
100
AcDbLine
 10
45.79219388651973
 20
48.94190094091546
 30
0.0
 11
45.7596938865197
 21
48.90940094091546
 31
0.0
  0
LINE
  5
2AA
330
1F
100
AcDbEntity
  8
0
  6
Continuous
 62
     7
100
AcDbLine
 10
45.95469388651972
 20
48.53565094091546
 30
0.0
 11
45.90594388651971
 21
48.56815094091545
 31
0.0
  0
LINE
  5
2AB
330
1F
100
AcDbEntity
  8
0
  6
Continuous
 62
     7
100
AcDbLine
 10
45.7596938865197
 20
48.48690094091546
 30
0.0
 11
45.82469388651973
 21
48.42190094091546
 31
0.0
  0
LINE
  5
2AC
330
1F
100
AcDbEntity
  8
0
  6
Continuous
 62
     7
100
AcDbLine
 10
46.19844388651973
 20
48.56815094091547
 30
0.0
 11
46.14969388651971
 21
48.53565094091546
 31
0.0
  0
LINE
  5
2AD
330
1F
100
AcDbEntity
  8
0
  6
Continuous
 62
     7
100
AcDbLine
 10
46.14969388651971
 20
48.53565094091546
 30
0.0
 11
46.08469388651972
 21
48.51940094091546
 31
0.0
  0
LINE
  5
2AE
330
1F
100
AcDbEntity
  8
0
  6
Continuous
 62
     7
100
AcDbLine
 10
46.1009438865197
 20
48.35690094091547
 30
0.0
 11
46.18219388651971
 21
48.37315094091547
 31
0.0
  0
LINE
  5
2AF
330
1F
100
AcDbEntity
  8
0
  6
Continuous
 62
     7
100
AcDbLine
 10
46.08469388651972
 20
48.51940094091546
 30
0.0
 11
46.01969388651972
 21
48.51940094091546
 31
0.0
  0
LINE
  5
2B0
330
1F
100
AcDbEntity
  8
0
  6
Continuous
 62
     7
100
AcDbLine
 10
46.00344388651971
 20
48.35690094091547
 30
0.0
 11
46.1009438865197
 21
48.35690094091547
 31
0.0
  0
LINE
  5
2B1
330
1F
100
AcDbEntity
  8
0
  6
Continuous
 62
     7
100
AcDbLine
 10
45.87344388651971
 20
48.61690094091546
 30
0.0
 11
45.85719388651972
 21
48.66565094091546
 31
0.0
  0
LINE
  5
2B2
330
1F
100
AcDbEntity
  8
0
  6
Continuous
 62
     7
100
AcDbLine
 10
45.90594388651971
 20
48.56815094091545
 30
0.0
 11
45.87344388651971
 21
48.61690094091546
 31
0.0
  0
LINE
  5
2B3
330
1F
100
AcDbEntity
  8
0
  6
Continuous
 62
     7
100
AcDbLine
 10
45.87344388651971
 20
48.77940094091547
 30
0.0
 11
45.90594388651971
 21
48.82815094091546
 31
0.0
  0
LINE
  5
2B4
330
1F
100
AcDbEntity
  8
0
  6
Continuous
 62
     7
100
AcDbLine
 10
46.01969388651972
 20
48.51940094091546
 30
0.0
 11
45.95469388651972
 21
48.53565094091546
 31
0.0
  0
LINE
  5
2B5
330
1F
100
AcDbEntity
  8
0
  6
Continuous
 62
     7
100
AcDbLine
 10
45.92219388651972
 20
48.37315094091546
 30
0.0
 11
46.00344388651971
 21
48.35690094091547
 31
0.0
  0
LINE
  5
2B6
330
1F
100
AcDbEntity
  8
0
  6
Continuous
 62
     7
100
AcDbLine
 10
45.85719388651972
 20
48.66565094091546
 30
0.0
 11
45.85719388651972
 21
48.73065094091547
 31
0.0
  0
LINE
  5
2B7
330
1F
100
AcDbEntity
  8
0
  6
Continuous
 62
     7
100
AcDbLine
 10
45.85719388651972
 20
48.73065094091547
 30
0.0
 11
45.87344388651971
 21
48.77940094091547
 31
0.0
  0
LINE
  5
2B8
330
1F
100
AcDbEntity
  8
0
  6
Continuous
 62
     7
100
AcDbLine
 10
48.73005431725397
 20
46.556535358983
 30
0.0
 11
48.73005431725397
 21
43.556535358983
 31
0.0
  0
LINE
  5
2B9
330
1F
100
AcDbEntity
  8
0
  6
Continuous
 62
     7
100
AcDbLine
 10
48.73005431725397
 20
46.556535358983
 30
0.0
 11
49.93005431725396
 21
46.556535358983
 31
0.0
  0
LINE
  5
2BA
330
1F
100
AcDbEntity
  8
0
  6
Continuous
 62
     7
100
AcDbLine
 10
45.7596938865197
 20
48.90940094091546
 30
0.0
 11
45.6946938865197
 21
48.81190094091546
 31
0.0
  0
LINE
  5
2BB
330
1F
100
AcDbEntity
  8
0
  6
Continuous
 62
     7
100
AcDbLine
 10
45.82469388651973
 20
48.42190094091546
 30
0.0
 11
45.92219388651972
 21
48.37315094091546
 31
0.0
  0
LINE
  5
2BC
330
1F
100
AcDbEntity
  8
0
  6
Continuous
 62
     7
100
AcDbLine
 10
45.92219388651972
 20
49.05565094091546
 30
0.0
 11
45.79219388651973
 21
48.94190094091546
 31
0.0
  0
LINE
  5
2BD
330
1F
100
AcDbEntity
  8
0
  6
Continuous
 62
     7
100
AcDbLine
 10
46.0359438865197
 20
49.15315094091547
 30
0.0
 11
45.92219388651972
 21
49.05565094091546
 31
0.0
  0
LINE
  5
2BE
330
1F
100
AcDbEntity
  8
0
  6
Continuous
 62
     7
100
AcDbLine
 10
46.14969388651971
 20
49.28315094091546
 30
0.0
 11
46.0359438865197
 21
49.15315094091547
 31
0.0
  0
LINE
  5
2BF
330
1F
100
AcDbEntity
  8
0
  6
Continuous
 62
     7
100
AcDbLine
 10
45.90594388651971
 20
48.82815094091546
 30
0.0
 11
46.11719388651972
 21
49.03940094091546
 31
0.0
  0
LINE
  5
2C0
330
1F
100
AcDbEntity
  8
0
  6
Continuous
 62
     7
100
AcDbLine
 10
46.23094388651973
 20
48.61690094091546
 30
0.0
 11
46.19844388651973
 21
48.56815094091547
 31
0.0
  0
LINE
  5
2C1
330
1F
100
AcDbEntity
  8
0
  6
Continuous
 62
     7
100
AcDbLine
 10
46.34469388651974
 20
48.48690094091546
 30
0.0
 11
46.40969388651971
 21
48.58440094091546
 31
0.0
  0
LINE
  5
2C2
330
1F
100
AcDbEntity
  8
0
  6
Continuous
 62
     7
100
AcDbLine
 10
46.27969388651971
 20
48.42190094091546
 30
0.0
 11
46.34469388651974
 21
48.48690094091546
 31
0.0
  0
LINE
  5
2C3
330
1F
100
AcDbEntity
  8
0
  6
Continuous
 62
     7
100
AcDbLine
 10
46.18219388651971
 20
48.37315094091547
 30
0.0
 11
46.27969388651971
 21
48.42190094091546
 31
0.0
  0
LINE
  5
2C4
330
1F
100
AcDbEntity
  8
0
  6
Continuous
 62
     7
100
AcDbLine
 10
46.42594388651972
 20
48.66565094091547
 30
0.0
 11
46.42594388651972
 21
48.73065094091547
 31
0.0
  0
LINE
  5
2C5
330
1F
100
AcDbEntity
  8
0
  6
Continuous
 62
     7
100
AcDbLine
 10
46.24719388651971
 20
48.73065094091547
 30
0.0
 11
46.24719388651971
 21
48.66565094091546
 31
0.0
  0
LINE
  5
2C6
330
1F
100
AcDbEntity
  8
0
  6
Continuous
 62
     7
100
AcDbLine
 10
46.42594388651972
 20
48.73065094091547
 30
0.0
 11
46.24719388651971
 21
48.73065094091547
 31
0.0
  0
LINE
  5
2C7
330
1F
100
AcDbEntity
  8
0
  6
Continuous
 62
     7
100
AcDbLine
 10
46.24719388651971
 20
48.66565094091546
 30
0.0
 11
46.23094388651973
 21
48.61690094091546
 31
0.0
  0
LINE
  5
2C8
330
1F
100
AcDbEntity
  8
0
  6
Continuous
 62
     7
100
AcDbLine
 10
46.40969388651971
 20
48.58440094091546
 30
0.0
 11
46.42594388651972
 21
48.66565094091547
 31
0.0
  0
LINE
  5
2C9
330
1F
100
AcDbEntity
  8
0
  6
Continuous
 62
     7
100
AcDbLine
 10
46.23094388651973
 20
49.39690094091546
 30
0.0
 11
46.14969388651971
 21
49.28315094091546
 31
0.0
  0
LINE
  5
2CA
330
1F
100
AcDbEntity
  8
0
  6
Continuous
 62
     7
100
AcDbLine
 10
46.31219388651974
 20
49.23440094091547
 30
0.0
 11
46.39344388651972
 21
49.33190094091546
 31
0.0
  0
LINE
  5
2CB
330
1F
100
AcDbEntity
  8
0
  6
Continuous
 62
     7
100
AcDbLine
 10
46.39344388651972
 20
49.33190094091546
 30
0.0
 11
46.45844388651972
 21
49.44565094091547
 31
0.0
  0
LINE
  5
2CC
330
1F
100
AcDbEntity
  8
0
  6
Continuous
 62
     7
100
AcDbLine
 10
46.45844388651972
 20
49.44565094091547
 30
0.0
 11
46.49094388651972
 21
49.55940094091547
 31
0.0
  0
LINE
  5
2CD
330
1F
100
AcDbEntity
  8
0
  6
Continuous
 62
     7
100
AcDbLine
 10
46.49094388651972
 20
49.55940094091547
 30
0.0
 11
46.49094388651972
 21
49.65690094091546
 31
0.0
  0
LINE
  5
2CE
330
1F
100
AcDbEntity
  8
0
  6
Continuous
 62
     7
100
AcDbLine
 10
46.26344388651972
 20
49.49440094091546
 30
0.0
 11
46.23094388651973
 21
49.39690094091546
 31
0.0
  0
LINE
  5
2CF
330
1F
100
AcDbEntity
  8
0
  6
Continuous
 62
     7
100
AcDbLine
 10
48.73005431725395
 20
46.65653535898299
 30
0.0
 11
48.43005431725393
 21
46.65653535898299
 31
0.0
  0
LINE
  5
2D0
330
1F
100
AcDbEntity
  8
0
  6
Continuous
 62
     7
100
AcDbLine
 10
48.43005431725393
 20
46.65653535898299
 30
0.0
 11
48.43005431725393
 21
43.456535358983
 31
0.0
  0
LINE
  5
2D1
330
1F
100
AcDbEntity
  8
0
  6
Continuous
 62
     7
100
AcDbLine
 10
48.93005431725396
 20
46.65653535898299
 30
0.0
 11
48.73005431725395
 21
46.65653535898299
 31
0.0
  0
LINE
  5
2D2
330
1F
100
AcDbEntity
  8
0
  6
Continuous
 62
     7
100
AcDbLine
 10
49.93005431725393
 20
46.65653535898299
 30
0.0
 11
48.93005431725396
 21
46.65653535898299
 31
0.0
  0
LINE
  5
2D3
330
1F
100
AcDbEntity
  8
0
  6
Continuous
 62
     7
100
AcDbLine
 10
48.93005431725396
 20
46.556535358983
 30
0.0
 11
48.93005431725396
 21
46.65653535898299
 31
0.0
  0
LINE
  5
2D4
330
1F
100
AcDbEntity
  8
0
  6
Continuous
 62
     7
100
AcDbLine
 10
48.73005431725397
 20
46.556535358983
 30
0.0
 11
48.73005431725395
 21
46.65653535898299
 31
0.0
  0
LINE
  5
2D5
330
1F
100
AcDbEntity
  8
0
  6
Continuous
 62
     7
100
AcDbLine
 10
49.93005431725393
 20
46.65653535898299
 30
0.0
 11
49.93005431725396
 21
46.556535358983
 31
0.0
  0
LINE
  5
2D6
330
1F
100
AcDbEntity
  8
0
  6
Continuous
 62
     7
100
AcDbLine
 10
51.43005431725396
 20
53.05653535898298
 30
0.0
 11
51.43005431725393
 21
37.05653535898296
 31
0.0
  0
LINE
  5
2D7
330
1F
100
AcDbEntity
  8
0
  6
Continuous
 62
     7
100
AcDbLine
 10
49.93005431725396
 20
43.556535358983
 30
0.0
 11
49.93005431725396
 21
46.556535358983
 31
0.0
  0
LINE
  5
2D8
330
1F
100
AcDbEntity
  8
0
  6
Continuous
 62
     7
100
AcDbLine
 10
49.93005431725393
 20
46.65653535898299
 30
0.0
 11
49.93005431725393
 21
52.55653535898298
 31
0.0
  0
LINE
  5
2D9
330
1F
100
AcDbEntity
  8
0
  6
Continuous
 62
     7
100
AcDbLine
 10
48.8369085667463
 20
52.20064790867843
 30
0.0
 11
46.57416686694936
 21
54.46338960847538
 31
0.0
  0
LINE
  5
2DA
330
1F
100
AcDbEntity
  8
0
  6
Continuous
 62
     7
100
AcDbLine
 10
46.50345618883068
 20
49.86719553076283
 30
0.0
 11
48.8369085667463
 21
52.20064790867843
 31
0.0
  0
LINE
  5
2DB
330
1F
100
AcDbEntity
  8
0
  6
Continuous
 62
     7
100
AcDbLine
 10
46.21469388651974
 20
49.12065094091547
 30
0.0
 11
46.31219388651974
 21
49.23440094091547
 31
0.0
  0
LINE
  5
2DC
330
1F
100
AcDbEntity
  8
0
  6
Continuous
 62
     7
100
AcDbLine
 10
39.69180581495414
 20
33.37787742627257
 30
0.0
 11
39.6918058149453
 21
34.07787742631111
 31
0.0
  0
LINE
  5
2DD
330
1F
100
AcDbEntity
  8
0
  6
Continuous
 62
     7
100
AcDbLine
 10
42.20871224996432
 20
33.37787742627257
 30
0.0
 11
42.23005431725392
 21
33.35653535898297
 31
0.0
  0
LINE
  5
2DE
330
1F
100
AcDbEntity
  8
0
  6
Continuous
 62
     7
100
AcDbLine
 10
41.56900633921447
 20
33.37787742627257
 30
0.0
 11
41.6551655944368
 21
33.37787742627257
 31
0.0
  0
LINE
  5
2DF
330
1F
100
AcDbEntity
  8
0
  6
Continuous
 62
     7
100
AcDbLine
 10
41.03005431725393
 20
34.67787742627257
 30
0.0
 11
41.63005431725395
 21
34.07787742627257
 31
0.0
  0
LINE
  5
2E0
330
1F
100
AcDbEntity
  8
0
  6
Continuous
 62
     7
100
AcDbLine
 10
37.83005431725394
 20
34.67787742627257
 30
0.0
 11
37.23005431725395
 21
34.07787742627257
 31
0.0
  0
LINE
  5
2E1
330
1F
100
AcDbEntity
  8
0
  6
Continuous
 62
     7
100
AcDbLine
 10
36.43005431725393
 20
35.30653535898297
 30
0.0
 11
37.83005431725394
 21
35.30653535898297
 31
0.0
  0
LINE
  5
2E2
330
1F
100
AcDbEntity
  8
0
  6
Continuous
 62
     7
100
AcDbLine
 10
37.83005431725394
 20
34.67787742627257
 30
0.0
 11
37.83005431725394
 21
36.35653535898301
 31
0.0
  0
LINE
  5
2E3
330
1F
100
AcDbEntity
  8
0
  6
Continuous
 62
     7
100
AcDbLine
 10
37.21567768793184
 20
33.37787742627257
 30
0.0
 11
37.30179218287839
 21
33.37787742627257
 31
0.0
  0
LINE
  5
2E4
330
1F
100
AcDbEntity
  8
0
  6
Continuous
 62
     7
100
AcDbLine
 10
36.54085027461522
 20
33.37787742627257
 30
0.0
 11
37.21567768793184
 21
33.37787742627257
 31
0.0
  0
LINE
  5
2E5
330
1F
100
AcDbEntity
  8
0
  6
Continuous
 62
     7
100
AcDbLine
 10
36.37909087468941
 20
39.78293833503969
 30
0.0
 11
38.68283983366933
 21
41.85724321475215
 31
0.0
  0
LINE
  5
2E6
330
1F
100
AcDbEntity
  8
0
  6
Continuous
 62
     7
100
AcDbLine
 10
42.43005431725391
 20
36.35653535898301
 30
0.0
 11
41.03005431725393
 21
36.35653535898301
 31
0.0
  0
LINE
  5
2E7
330
1F
100
AcDbEntity
  8
0
  6
Continuous
 62
     7
100
AcDbLine
 10
41.03005431725393
 20
34.67787742627257
 30
0.0
 11
41.03005431725393
 21
36.35653535898301
 31
0.0
  0
LINE
  5
2E8
330
1F
100
AcDbEntity
  8
0
  6
Continuous
 62
     7
100
AcDbLine
 10
37.83005431725394
 20
34.67787742627257
 30
0.0
 11
41.03005431725393
 21
34.67787742627257
 31
0.0
  0
LINE
  5
2E9
330
1F
100
AcDbEntity
  8
0
  6
Continuous
 62
     7
100
AcDbLine
 10
42.43005431725391
 20
36.35653535898301
 30
0.0
 11
44.23005431725395
 21
34.55653535898298
 31
0.0
  0
LINE
  5
2EA
330
1F
100
AcDbEntity
  8
0
  6
Continuous
 62
     7
100
AcDbLine
 10
41.03005431725393
 20
36.35653535898301
 30
0.0
 11
37.83005431725394
 21
36.35653535898301
 31
0.0
  0
LINE
  5
2EB
330
1F
100
AcDbEntity
  8
0
  6
Continuous
 62
     7
100
AcDbLine
 10
41.63005431725395
 20
34.07787742627257
 30
0.0
 11
41.61580361669337
 21
34.07787742627257
 31
0.0
  0
LINE
  5
2EC
330
1F
100
AcDbEntity
  8
0
  6
Continuous
 62
     7
100
AcDbLine
 10
41.15758154099441
 20
34.07787742632119
 30
0.0
 11
41.07114684767402
 21
34.07787742629272
 31
0.0
  0
LINE
  5
2ED
330
1F
100
AcDbEntity
  8
0
  6
Continuous
 62
     7
100
AcDbLine
 10
41.07114684767402
 20
34.07787742629272
 30
0.0
 11
40.80537226427094
 21
34.07787742627257
 31
0.0
  0
LINE
  5
2EE
330
1F
100
AcDbEntity
  8
0
  6
Continuous
 62
     7
100
AcDbLine
 10
39.69180581495414
 20
33.37787742627257
 30
0.0
 11
41.30262905368295
 21
33.37787742627257
 31
0.0
  0
LINE
  5
2EF
330
1F
100
AcDbEntity
  8
0
  6
Continuous
 62
     7
100
AcDbLine
 10
39.19180581496366
 20
34.07787742631051
 30
0.0
 11
39.19180581495414
 21
33.37787742627257
 31
0.0
  0
LINE
  5
2F0
330
1F
100
AcDbEntity
  8
0
  6
Continuous
 62
     7
100
AcDbLine
 10
39.6918058149453
 20
34.07787742631111
 30
0.0
 11
39.19180581496366
 21
34.07787742631051
 31
0.0
  0
LINE
  5
2F1
330
1F
100
AcDbEntity
  8
0
  6
Continuous
 62
     7
100
AcDbLine
 10
42.23005431725392
 20
33.35653535898297
 30
0.0
 11
39.43005431725391
 21
33.35653535898297
 31
0.0
  0
LINE
  5
2F2
330
1F
100
AcDbEntity
  8
0
  6
Continuous
 62
     7
100
AcDbLine
 10
37.7992895870544
 20
34.07787742627257
 30
0.0
 11
37.71293447734382
 21
34.07787742627257
 31
0.0
  0
LINE
  5
2F3
330
1F
100
AcDbEntity
  8
0
  6
Continuous
 62
     7
100
AcDbLine
 10
38.06783198179102
 20
34.07787742632119
 30
0.0
 11
37.7992895870544
 21
34.07787742627257
 31
0.0
  0
LINE
  5
2F4
330
1F
100
AcDbEntity
  8
0
  6
Continuous
 62
     7
100
AcDbLine
 10
37.2443050178145
 20
34.07787742627257
 30
0.0
 11
37.23005431725395
 21
34.07787742627257
 31
0.0
  0
LINE
  5
2F5
330
1F
100
AcDbEntity
  8
0
  6
Continuous
 62
     7
100
AcDbLine
 10
37.57024792836455
 20
33.37787742627257
 30
0.0
 11
39.19180581495414
 21
33.37787742627257
 31
0.0
  0
LINE
  5
2F6
330
1F
100
AcDbEntity
  8
0
  6
Continuous
 62
     7
100
AcDbLine
 10
39.43005431725391
 20
33.35653535898297
 30
0.0
 11
36.63005431725392
 21
33.35653535898297
 31
0.0
  0
LINE
  5
2F7
330
1F
100
AcDbEntity
  8
0
  6
Continuous
 62
     7
100
AcDbLine
 10
36.65139638454352
 20
33.37787742627257
 30
0.0
 11
36.63005431725392
 21
33.35653535898297
 31
0.0
  0
LINE
  5
2F8
330
1F
100
AcDbEntity
  8
0
  6
Continuous
 62
     7
100
AcDbLine
 10
34.63005431725392
 20
34.55653535898298
 30
0.0
 11
36.43005431725393
 21
36.35653535898301
 31
0.0
  0
LINE
  5
2F9
330
1F
100
AcDbEntity
  8
0
  6
Continuous
 62
     7
100
AcDbLine
 10
41.6551655944368
 20
33.37787742627257
 30
0.0
 11
42.20871224996432
 21
33.37787742627257
 31
0.0
  0
LINE
  5
2FA
330
1F
100
AcDbEntity
  8
0
  6
Continuous
 62
     7
100
AcDbLine
 10
42.20871224996432
 20
33.37787742627257
 30
0.0
 11
42.31925835989267
 21
33.37787742627257
 31
0.0
  0
LINE
  5
2FB
330
1F
100
AcDbEntity
  8
0
  6
Continuous
 62
     7
100
AcDbLine
 10
41.10680339900586
 20
33.18492230930217
 30
0.0
 11
41.67248882395509
 21
33.18492230930217
 31
0.0
  0
LINE
  5
2FC
330
1F
100
AcDbEntity
  8
0
  6
Continuous
 62
     7
100
AcDbLine
 10
36.63005431725392
 20
33.05653535898296
 30
0.0
 11
31.43005431725385
 21
33.05653535898296
 31
0.0
  0
LINE
  5
2FD
330
1F
100
AcDbEntity
  8
0
  6
Continuous
 62
     7
100
AcDbLine
 10
47.43005431725396
 20
33.05653535898296
 30
0.0
 11
42.23005431725392
 21
33.05653535898296
 31
0.0
  0
LINE
  5
2FE
330
1F
100
AcDbEntity
  8
0
  6
Continuous
 62
     7
100
AcDbLine
 10
36.43005431725393
 20
34.55653535898298
 30
0.0
 11
36.43005431725393
 21
35.30653535898297
 31
0.0
  0
LINE
  5
2FF
330
1F
100
AcDbEntity
  8
0
  6
Continuous
 62
     7
100
AcDbLine
 10
30.13005431725395
 20
43.55653535898297
 30
0.0
 11
28.93005431725393
 21
43.556535358983
 31
0.0
  0
LINE
  5
300
330
1F
100
AcDbEntity
  8
0
  6
Continuous
 62
     7
100
AcDbLine
 10
32.84068246581776
 20
43.55231123110471
 30
0.0
 11
31.80282247332849
 21
43.55231123110471
 31
0.0
  0
LINE
  5
301
330
1F
100
AcDbEntity
  8
0
  6
Continuous
 62
     7
100
AcDbLine
 10
32.84068246581776
 20
43.4023112311047
 30
0.0
 11
32.84068246581776
 21
43.55231123110471
 31
0.0
  0
LINE
  5
302
330
1F
100
AcDbEntity
  8
0
  6
Continuous
 62
     7
100
AcDbLine
 10
32.67816959112633
 20
36.71974038961281
 30
0.0
 11
34.38740268972435
 21
38.25874078423819
 31
0.0
  0
LINE
  5
303
330
1F
100
AcDbEntity
  8
0
  6
Continuous
 62
     7
100
AcDbLine
 10
32.51383699191953
 20
40.33954629557489
 30
0.0
 11
30.80460389332154
 21
38.80054590094952
 31
0.0
  0
LINE
  5
304
330
1F
100
AcDbEntity
  8
0
  6
Continuous
 62
     7
100
AcDbLine
 10
31.93005431725393
 20
34.55653535898298
 30
0.0
 11
34.63005431725392
 21
34.55653535898298
 31
0.0
  0
LINE
  5
305
330
1F
100
AcDbEntity
  8
0
  6
Continuous
 62
     7
100
AcDbLine
 10
31.52093457413398
 20
43.0499513571115
 30
0.0
 11
32.24878573240272
 21
43.0499513571115
 31
0.0
  0
LINE
  5
306
330
1F
100
AcDbEntity
  8
0
  6
Continuous
 62
     7
100
AcDbLine
 10
31.52093457413398
 20
43.1999513571115
 30
0.0
 11
31.52093457413398
 21
43.0499513571115
 31
0.0
  0
LINE
  5
307
330
1F
100
AcDbEntity
  8
0
  6
Continuous
 62
     7
100
AcDbLine
 10
32.3987857324027
 20
43.0499513571115
 30
0.0
 11
33.12257036501237
 21
43.0499513571115
 31
0.0
  0
LINE
  5
308
330
1F
100
AcDbEntity
  8
0
  6
Continuous
 62
     7
100
AcDbLine
 10
33.12257036501237
 20
43.0499513571115
 30
0.0
 11
33.12257036501237
 21
43.1999513571115
 31
0.0
  0
LINE
  5
309
330
1F
100
AcDbEntity
  8
0
  6
Continuous
 62
     7
100
AcDbLine
 10
30.13005431725395
 20
43.45653535898299
 30
0.0
 11
30.43005431725393
 21
43.45653535898299
 31
0.0
  0
LINE
  5
30A
330
1F
100
AcDbEntity
  8
0
  6
Continuous
 62
     7
100
AcDbLine
 10
33.12257036501237
 20
43.1999513571115
 30
0.0
 11
31.52093457413398
 21
43.1999513571115
 31
0.0
  0
LINE
  5
30B
330
1F
100
AcDbEntity
  8
0
  6
Continuous
 62
     7
100
AcDbLine
 10
31.80282247332849
 20
43.4023112311047
 30
0.0
 11
32.84068246581776
 21
43.4023112311047
 31
0.0
  0
LINE
  5
30C
330
1F
100
AcDbEntity
  8
0
  6
Continuous
 62
     7
100
AcDbLine
 10
36.43005431725393
 20
34.55653535898298
 30
0.0
 11
34.63005431725392
 21
34.55653535898298
 31
0.0
  0
LINE
  5
30D
330
1F
100
AcDbEntity
  8
0
  6
Continuous
 62
     7
100
AcDbLine
 10
32.51383699191953
 20
40.33954629557489
 30
0.0
 11
34.38740268972435
 21
38.25874078423819
 31
0.0
  0
LINE
  5
30E
330
1F
100
AcDbEntity
  8
0
  6
Continuous
 62
     7
100
AcDbLine
 10
31.80282247332849
 20
43.55231123110471
 30
0.0
 11
31.80282247332849
 21
43.4023112311047
 31
0.0
  0
LINE
  5
30F
330
1F
100
AcDbEntity
  8
0
  6
Continuous
 62
     7
100
AcDbLine
 10
32.24878573240272
 20
43.0499513571115
 30
0.0
 11
32.24878573240272
 21
42.37421579822816
 31
0.0
  0
LINE
  5
310
330
1F
100
AcDbEntity
  8
0
  6
Continuous
 62
     7
100
AcDbLine
 10
32.24878573240272
 20
42.37421579822816
 30
0.0
 11
32.3987857324027
 21
42.37421579822816
 31
0.0
  0
LINE
  5
311
330
1F
100
AcDbEntity
  8
0
  6
Continuous
 62
     7
100
AcDbLine
 10
30.13005431725395
 20
43.45653535898299
 30
0.0
 11
30.13005431725395
 21
43.55653535898297
 31
0.0
  0
LINE
  5
312
330
1F
100
AcDbEntity
  8
0
  6
Continuous
 62
     7
100
AcDbLine
 10
29.93005431725393
 20
43.45653535898299
 30
0.0
 11
29.93005431725393
 21
43.55653535898297
 31
0.0
  0
LINE
  5
313
330
1F
100
AcDbEntity
  8
0
  6
Continuous
 62
     7
100
AcDbLine
 10
32.3987857324027
 20
42.37421579822816
 30
0.0
 11
32.3987857324027
 21
43.0499513571115
 31
0.0
  0
LINE
  5
314
330
1F
100
AcDbEntity
  8
0
  6
Continuous
 62
     7
100
AcDbLine
 10
30.80460389332154
 20
38.80054590094952
 30
0.0
 11
32.67816959112633
 21
36.71974038961281
 31
0.0
  0
LINE
  5
315
330
1F
100
AcDbEntity
  8
0
  6
Continuous
 62
     7
100
AcDbLine
 10
34.16355845179334
 20
42.09408871593148
 30
0.0
 11
36.23786333150579
 21
39.79033975695155
 31
0.0
  0
LINE
  5
316
330
1F
100
AcDbEntity
  8
0
  6
Continuous
 62
     7
100
AcDbLine
 10
33.56154493342979
 20
46.27548349862443
 30
0.0
 11
32.97656991261562
 21
46.61296908755554
 31
0.0
  0
LINE
  5
317
330
1F
100
AcDbEntity
  8
0
  6
Continuous
 62
     7
100
AcDbLine
 10
33.0665199542438
 20
46.76888249304437
 30
0.0
 11
33.65149497505789
 21
46.4313969041132
 31
0.0
  0
LINE
  5
318
330
1F
100
AcDbEntity
  8
0
  6
Continuous
 62
     7
100
AcDbLine
 10
41.0587339736943
 20
48.66511400274571
 30
0.0
 11
43.03863296101662
 21
46.68521501542337
 31
0.0
  0
LINE
  5
319
330
1F
100
AcDbEntity
  8
0
  6
Continuous
 62
     7
100
AcDbLine
 10
44.66497855774568
 20
48.31156061215243
 30
0.0
 11
43.03863296101662
 21
46.68521501542337
 31
0.0
  0
LINE
  5
31A
330
1F
100
AcDbEntity
  8
0
  6
Continuous
 62
     7
100
AcDbLine
 10
44.66497855774568
 20
48.31156061215243
 30
0.0
 11
42.6850795704224
 21
50.29145959947572
 31
0.0
  0
LINE
  5
31B
330
1F
100
AcDbEntity
  8
0
  6
Continuous
 62
     7
100
AcDbLine
 10
41.0587339736943
 20
48.66511400274571
 30
0.0
 11
42.6850795704224
 21
50.29145959947572
 31
0.0
  0
LINE
  5
31C
330
1F
100
AcDbEntity
  8
0
  6
Continuous
 62
     7
100
AcDbLine
 10
28.93005431725393
 20
46.556535358983
 30
0.0
 11
30.13005431725395
 21
46.55653535898297
 31
0.0
  0
LINE
  5
31D
330
1F
100
AcDbEntity
  8
0
  6
Continuous
 62
     7
100
AcDbLine
 10
29.93005431725393
 20
46.55653535898297
 30
0.0
 11
29.93005431725393
 21
46.65653535898299
 31
0.0
  0
LINE
  5
31E
330
1F
100
AcDbEntity
  8
0
  6
Continuous
 62
     7
100
AcDbLine
 10
32.47228974798804
 20
49.15315094091547
 30
0.0
 11
32.45603974798806
 21
49.21815094091546
 31
0.0
  0
LINE
  5
31F
330
1F
100
AcDbEntity
  8
0
  6
Continuous
 62
     7
100
AcDbLine
 10
32.60228974798807
 20
48.86065094091546
 30
0.0
 11
32.66728974798807
 21
48.87690094091546
 31
0.0
  0
LINE
  5
320
330
1F
100
AcDbEntity
  8
0
  6
Continuous
 62
     7
100
AcDbLine
 10
32.66728974798807
 20
48.51940094091546
 30
0.0
 11
32.60228974798807
 21
48.53565094091546
 31
0.0
  0
LINE
  5
321
330
1F
100
AcDbEntity
  8
0
  6
Continuous
 62
     7
100
AcDbLine
 10
32.92728974798808
 20
48.42190094091546
 30
0.0
 11
32.99228974798805
 21
48.48690094091546
 31
0.0
  0
LINE
  5
322
330
1F
100
AcDbEntity
  8
0
  6
Continuous
 62
     7
100
AcDbLine
 10
32.97603974798807
 20
49.57565094091547
 30
0.0
 11
32.87853974798804
 21
49.62440094091546
 31
0.0
  0
LINE
  5
323
330
1F
100
AcDbEntity
  8
0
  6
Continuous
 62
     7
100
AcDbLine
 10
32.74853974798805
 20
48.35690094091547
 30
0.0
 11
32.82978974798806
 21
48.37315094091547
 31
0.0
  0
LINE
  5
324
330
1F
100
AcDbEntity
  8
0
  6
Continuous
 62
     7
100
AcDbLine
 10
32.56978974798807
 20
48.37315094091547
 30
0.0
 11
32.65103974798808
 21
48.35690094091547
 31
0.0
  0
LINE
  5
325
330
1F
100
AcDbEntity
  8
0
  6
Continuous
 62
     7
100
AcDbLine
 10
32.65103974798808
 20
48.35690094091547
 30
0.0
 11
32.74853974798805
 21
48.35690094091547
 31
0.0
  0
LINE
  5
326
330
1F
100
AcDbEntity
  8
0
  6
Continuous
 62
     7
100
AcDbLine
 10
32.45603974798806
 20
49.28315094091546
 30
0.0
 11
32.47228974798807
 21
49.34815094091546
 31
0.0
  0
LINE
  5
327
330
1F
100
AcDbEntity
  8
0
  6
Continuous
 62
     7
100
AcDbLine
 10
32.50478974798807
 20
48.73065094091547
 30
0.0
 11
32.52103974798808
 21
48.77940094091547
 31
0.0
  0
LINE
  5
328
330
1F
100
AcDbEntity
  8
0
  6
Continuous
 62
     7
100
AcDbLine
 10
32.50478974798807
 20
48.66565094091547
 30
0.0
 11
32.50478974798807
 21
48.73065094091547
 31
0.0
  0
LINE
  5
329
330
1F
100
AcDbEntity
  8
0
  6
Continuous
 62
     7
100
AcDbLine
 10
32.52103974798808
 20
48.61690094091546
 30
0.0
 11
32.50478974798807
 21
48.66565094091547
 31
0.0
  0
LINE
  5
32A
330
1F
100
AcDbEntity
  8
0
  6
Continuous
 62
     7
100
AcDbLine
 10
32.47228974798804
 20
48.42190094091546
 30
0.0
 11
32.56978974798807
 21
48.37315094091547
 31
0.0
  0
LINE
  5
32B
330
1F
100
AcDbEntity
  8
0
  6
Continuous
 62
     7
100
AcDbLine
 10
32.74853974798805
 20
49.65690094091547
 30
0.0
 11
32.65103974798805
 21
49.65690094091545
 31
0.0
  0
LINE
  5
32C
330
1F
100
AcDbEntity
  8
0
  6
Continuous
 62
     7
100
AcDbLine
 10
32.87853974798804
 20
49.62440094091546
 30
0.0
 11
32.74853974798805
 21
49.65690094091547
 31
0.0
  0
LINE
  5
32D
330
1F
100
AcDbEntity
  8
0
  6
Continuous
 62
     7
100
AcDbLine
 10
32.58603974798808
 20
49.46190094091547
 30
0.0
 11
32.66728974798807
 21
49.47815094091546
 31
0.0
  0
LINE
  5
32E
330
1F
100
AcDbEntity
  8
0
  6
Continuous
 62
     7
100
AcDbLine
 10
32.66728974798807
 20
49.47815094091546
 30
0.0
 11
32.73228974798809
 21
49.47815094091546
 31
0.0
  0
LINE
  5
32F
330
1F
100
AcDbEntity
  8
0
  6
Continuous
 62
     7
100
AcDbLine
 10
32.73228974798809
 20
49.47815094091546
 30
0.0
 11
32.81353974798807
 21
49.46190094091546
 31
0.0
  0
LINE
  5
330
330
1F
100
AcDbEntity
  8
0
  6
Continuous
 62
     7
100
AcDbLine
 10
32.81353974798807
 20
49.46190094091546
 30
0.0
 11
32.87853974798807
 21
49.41315094091546
 31
0.0
  0
LINE
  5
331
330
1F
100
AcDbEntity
  8
0
  6
Continuous
 62
     7
100
AcDbLine
 10
32.87853974798807
 20
49.41315094091546
 30
0.0
 11
32.92728974798808
 21
49.34815094091546
 31
0.0
  0
LINE
  5
332
330
1F
100
AcDbEntity
  8
0
  6
Continuous
 62
     7
100
AcDbLine
 10
32.92728974798808
 20
49.34815094091546
 30
0.0
 11
32.94353974798804
 21
49.28315094091546
 31
0.0
  0
LINE
  5
333
330
1F
100
AcDbEntity
  8
0
  6
Continuous
 62
     7
100
AcDbLine
 10
32.94353974798804
 20
49.28315094091546
 30
0.0
 11
32.94353974798807
 21
49.21815094091546
 31
0.0
  0
LINE
  5
334
330
1F
100
AcDbEntity
  8
0
  6
Continuous
 62
     7
100
AcDbLine
 10
33.07353974798807
 20
48.73065094091547
 30
0.0
 11
32.89478974798809
 21
48.73065094091547
 31
0.0
  0
LINE
  5
335
330
1F
100
AcDbEntity
  8
0
  6
Continuous
 62
     7
100
AcDbLine
 10
33.07353974798807
 20
48.66565094091546
 30
0.0
 11
33.07353974798807
 21
48.73065094091547
 31
0.0
  0
LINE
  5
336
330
1F
100
AcDbEntity
  8
0
  6
Continuous
 62
     7
100
AcDbLine
 10
32.89478974798809
 20
48.73065094091547
 30
0.0
 11
32.89478974798809
 21
48.66565094091546
 31
0.0
  0
LINE
  5
337
330
1F
100
AcDbEntity
  8
0
  6
Continuous
 62
     7
100
AcDbLine
 10
32.66728974798807
 20
48.87690094091546
 30
0.0
 11
32.73228974798809
 21
48.87690094091546
 31
0.0
  0
LINE
  5
338
330
1F
100
AcDbEntity
  8
0
  6
Continuous
 62
     7
100
AcDbLine
 10
32.52103974798806
 20
49.08815094091546
 30
0.0
 11
32.47228974798804
 21
49.15315094091547
 31
0.0
  0
LINE
  5
339
330
1F
100
AcDbEntity
  8
0
  6
Continuous
 62
     7
100
AcDbLine
 10
32.58603974798805
 20
49.03940094091546
 30
0.0
 11
32.52103974798806
 21
49.08815094091546
 31
0.0
  0
LINE
  5
33A
330
1F
100
AcDbEntity
  8
0
  6
Continuous
 62
     7
100
AcDbLine
 10
32.66728974798807
 20
49.02315094091546
 30
0.0
 11
32.58603974798805
 21
49.03940094091546
 31
0.0
  0
LINE
  5
33B
330
1F
100
AcDbEntity
  8
0
  6
Continuous
 62
     7
100
AcDbLine
 10
32.73228974798809
 20
49.02315094091546
 30
0.0
 11
32.66728974798807
 21
49.02315094091546
 31
0.0
  0
LINE
  5
33C
330
1F
100
AcDbEntity
  8
0
  6
Continuous
 62
     7
100
AcDbLine
 10
32.73228974798809
 20
48.87690094091546
 30
0.0
 11
32.73228974798809
 21
49.02315094091546
 31
0.0
  0
LINE
  5
33D
330
1F
100
AcDbEntity
  8
0
  6
Continuous
 62
     7
100
AcDbLine
 10
32.73228974798803
 20
48.51940094091545
 30
0.0
 11
32.66728974798807
 21
48.51940094091546
 31
0.0
  0
LINE
  5
33E
330
1F
100
AcDbEntity
  8
0
  6
Continuous
 62
     7
100
AcDbLine
 10
32.79728974798803
 20
48.53565094091545
 30
0.0
 11
32.73228974798803
 21
48.51940094091545
 31
0.0
  0
LINE
  5
33F
330
1F
100
AcDbEntity
  8
0
  6
Continuous
 62
     7
100
AcDbLine
 10
32.84603974798804
 20
48.56815094091544
 30
0.0
 11
32.79728974798803
 21
48.53565094091545
 31
0.0
  0
LINE
  5
340
330
1F
100
AcDbEntity
  8
0
  6
Continuous
 62
     7
100
AcDbLine
 10
32.87853974798807
 20
48.61690094091546
 30
0.0
 11
32.84603974798804
 21
48.56815094091544
 31
0.0
  0
LINE
  5
341
330
1F
100
AcDbEntity
  8
0
  6
Continuous
 62
     7
100
AcDbLine
 10
32.89478974798809
 20
48.66565094091546
 30
0.0
 11
32.87853974798807
 21
48.61690094091546
 31
0.0
  0
LINE
  5
342
330
1F
100
AcDbEntity
  8
0
  6
Continuous
 62
     7
100
AcDbLine
 10
33.05728974798808
 20
48.58440094091546
 30
0.0
 11
33.07353974798807
 21
48.66565094091546
 31
0.0
  0
LINE
  5
343
330
1F
100
AcDbEntity
  8
0
  6
Continuous
 62
     7
100
AcDbLine
 10
32.99228974798805
 20
48.48690094091546
 30
0.0
 11
33.05728974798808
 21
48.58440094091546
 31
0.0
  0
LINE
  5
344
330
1F
100
AcDbEntity
  8
0
  6
Continuous
 62
     7
100
AcDbLine
 10
33.05728974798808
 20
49.49440094091546
 30
0.0
 11
32.97603974798807
 21
49.57565094091547
 31
0.0
  0
LINE
  5
345
330
1F
100
AcDbEntity
  8
0
  6
Continuous
 62
     7
100
AcDbLine
 10
33.10603974798806
 20
49.41315094091546
 30
0.0
 11
33.05728974798808
 21
49.49440094091546
 31
0.0
  0
LINE
  5
346
330
1F
100
AcDbEntity
  8
0
  6
Continuous
 62
     7
100
AcDbLine
 10
37.80137466081294
 20
48.665114002745
 30
0.0
 11
36.17502906408362
 21
50.29145959947255
 31
0.0
  0
LINE
  5
347
330
1F
100
AcDbEntity
  8
0
  6
Continuous
 62
     7
100
AcDbLine
 10
34.19513007676221
 20
48.31156061215241
 30
0.0
 11
36.17502906408362
 21
50.29145959947255
 31
0.0
  0
LINE
  5
348
330
1F
100
AcDbEntity
  8
0
  6
Continuous
 62
     7
100
AcDbLine
 10
32.52103974798808
 20
49.41315094091546
 30
0.0
 11
32.58603974798808
 21
49.46190094091547
 31
0.0
  0
LINE
  5
349
330
1F
100
AcDbEntity
  8
0
  6
Continuous
 62
     7
100
AcDbLine
 10
32.26103974798807
 20
49.29940094091546
 30
0.0
 11
32.26103974798807
 21
49.21815094091546
 31
0.0
  0
LINE
  5
34A
330
1F
100
AcDbEntity
  8
0
  6
Continuous
 62
     7
100
AcDbLine
 10
32.32603974798809
 20
48.66565094091546
 30
0.0
 11
32.34228974798805
 21
48.58440094091546
 31
0.0
  0
LINE
  5
34B
330
1F
100
AcDbEntity
  8
0
  6
Continuous
 62
     7
100
AcDbLine
 10
32.34228974798805
 20
48.81190094091546
 30
0.0
 11
32.32603974798809
 21
48.73065094091547
 31
0.0
  0
LINE
  5
34C
330
1F
100
AcDbEntity
  8
0
  6
Continuous
 62
     7
100
AcDbLine
 10
32.32603974798809
 20
48.73065094091547
 30
0.0
 11
32.32603974798809
 21
48.66565094091546
 31
0.0
  0
LINE
  5
34D
330
1F
100
AcDbEntity
  8
0
  6
Continuous
 62
     7
100
AcDbLine
 10
32.35853974798806
 20
49.00690094091546
 30
0.0
 11
32.43978974798807
 21
48.94190094091546
 31
0.0
  0
LINE
  5
34E
330
1F
100
AcDbEntity
  8
0
  6
Continuous
 62
     7
100
AcDbLine
 10
32.43978974798807
 20
48.94190094091546
 30
0.0
 11
32.40728974798807
 21
48.90940094091546
 31
0.0
  0
LINE
  5
34F
330
1F
100
AcDbEntity
  8
0
  6
Continuous
 62
     7
100
AcDbLine
 10
32.47228974798807
 20
49.34815094091546
 30
0.0
 11
32.52103974798808
 21
49.41315094091546
 31
0.0
  0
LINE
  5
350
330
1F
100
AcDbEntity
  8
0
  6
Continuous
 62
     7
100
AcDbLine
 10
32.52103974798808
 20
48.77940094091547
 30
0.0
 11
32.55353974798805
 21
48.82815094091546
 31
0.0
  0
LINE
  5
351
330
1F
100
AcDbEntity
  8
0
  6
Continuous
 62
     7
100
AcDbLine
 10
32.55353974798805
 20
48.56815094091546
 30
0.0
 11
32.52103974798808
 21
48.61690094091546
 31
0.0
  0
LINE
  5
352
330
1F
100
AcDbEntity
  8
0
  6
Continuous
 62
     7
100
AcDbLine
 10
32.40728974798807
 20
48.48690094091546
 30
0.0
 11
32.47228974798804
 21
48.42190094091546
 31
0.0
  0
LINE
  5
353
330
1F
100
AcDbEntity
  8
0
  6
Continuous
 62
     7
100
AcDbLine
 10
32.34228974798805
 20
48.58440094091546
 30
0.0
 11
32.40728974798807
 21
48.48690094091546
 31
0.0
  0
LINE
  5
354
330
1F
100
AcDbEntity
  8
0
  6
Continuous
 62
     7
100
AcDbLine
 10
32.40728974798807
 20
48.90940094091546
 30
0.0
 11
32.34228974798805
 21
48.81190094091546
 31
0.0
  0
LINE
  5
355
330
1F
100
AcDbEntity
  8
0
  6
Continuous
 62
     7
100
AcDbLine
 10
32.29353974798806
 20
49.10440094091545
 30
0.0
 11
32.35853974798806
 21
49.00690094091546
 31
0.0
  0
LINE
  5
356
330
1F
100
AcDbEntity
  8
0
  6
Continuous
 62
     7
100
AcDbLine
 10
32.26103974798807
 20
49.21815094091546
 30
0.0
 11
32.29353974798806
 21
49.10440094091545
 31
0.0
  0
LINE
  5
357
330
1F
100
AcDbEntity
  8
0
  6
Continuous
 62
     7
100
AcDbLine
 10
32.29353974798806
 20
49.41315094091546
 30
0.0
 11
32.26103974798807
 21
49.29940094091546
 31
0.0
  0
LINE
  5
358
330
1F
100
AcDbEntity
  8
0
  6
Continuous
 62
     7
100
AcDbLine
 10
32.34228974798805
 20
49.49440094091546
 30
0.0
 11
32.29353974798806
 21
49.41315094091546
 31
0.0
  0
LINE
  5
359
330
1F
100
AcDbEntity
  8
0
  6
Continuous
 62
     7
100
AcDbLine
 10
32.42353974798806
 20
49.57565094091546
 30
0.0
 11
32.34228974798805
 21
49.49440094091546
 31
0.0
  0
LINE
  5
35A
330
1F
100
AcDbEntity
  8
0
  6
Continuous
 62
     7
100
AcDbLine
 10
32.52103974798806
 20
49.62440094091545
 30
0.0
 11
32.42353974798806
 21
49.57565094091546
 31
0.0
  0
LINE
  5
35B
330
1F
100
AcDbEntity
  8
0
  6
Continuous
 62
     7
100
AcDbLine
 10
32.65103974798805
 20
49.65690094091545
 30
0.0
 11
32.52103974798806
 21
49.62440094091545
 31
0.0
  0
LINE
  5
35C
330
1F
100
AcDbEntity
  8
0
  6
Continuous
 62
     7
100
AcDbLine
 10
34.61939414547413
 20
52.12993723055978
 30
0.0
 11
32.28594176755854
 21
54.46338960847538
 31
0.0
  0
LINE
  5
35D
330
1F
100
AcDbEntity
  8
0
  6
Continuous
 62
     7
100
AcDbLine
 10
32.28594176755854
 20
54.46338960847538
 30
0.0
 11
30.02320006776159
 21
52.20064790867845
 31
0.0
  0
LINE
  5
35E
330
1F
100
AcDbEntity
  8
0
  6
Continuous
 62
     7
100
AcDbLine
 10
32.35665244567721
 20
49.86719553076283
 30
0.0
 11
34.61939414547413
 21
52.12993723055978
 31
0.0
  0
LINE
  5
35F
330
1F
100
AcDbEntity
  8
0
  6
Continuous
 62
     7
100
AcDbLine
 10
35.82147567350506
 20
46.68521501543837
 30
0.0
 11
34.19513007676221
 21
48.31156061215241
 31
0.0
  0
LINE
  5
360
330
1F
100
AcDbEntity
  8
0
  6
Continuous
 62
     7
100
AcDbLine
 10
32.94353974798807
 20
49.21815094091546
 30
0.0
 11
33.13853974798809
 21
49.21815094091546
 31
0.0
  0
LINE
  5
361
330
1F
100
AcDbEntity
  8
0
  6
Continuous
 62
     7
100
AcDbLine
 10
33.13853974798809
 20
49.21815094091546
 30
0.0
 11
33.13853974798809
 21
49.29940094091546
 31
0.0
  0
LINE
  5
362
330
1F
100
AcDbEntity
  8
0
  6
Continuous
 62
     7
100
AcDbLine
 10
32.45603974798806
 20
49.21815094091546
 30
0.0
 11
32.45603974798806
 21
49.28315094091546
 31
0.0
  0
LINE
  5
363
330
1F
100
AcDbEntity
  8
0
  6
Continuous
 62
     7
100
AcDbLine
 10
32.55353974798805
 20
48.82815094091546
 30
0.0
 11
32.60228974798807
 21
48.86065094091546
 31
0.0
  0
LINE
  5
364
330
1F
100
AcDbEntity
  8
0
  6
Continuous
 62
     7
100
AcDbLine
 10
32.60228974798807
 20
48.53565094091546
 30
0.0
 11
32.55353974798805
 21
48.56815094091546
 31
0.0
  0
LINE
  5
365
330
1F
100
AcDbEntity
  8
0
  6
Continuous
 62
     7
100
AcDbLine
 10
32.82978974798806
 20
48.37315094091547
 30
0.0
 11
32.92728974798808
 21
48.42190094091546
 31
0.0
  0
LINE
  5
366
330
1F
100
AcDbEntity
  8
0
  6
Continuous
 62
     7
100
AcDbLine
 10
33.13853974798809
 20
49.29940094091546
 30
0.0
 11
33.10603974798806
 21
49.41315094091546
 31
0.0
  0
LINE
  5
367
330
1F
100
AcDbEntity
  8
0
  6
Continuous
 62
     7
100
AcDbLine
 10
37.80137466081294
 20
48.665114002745
 30
0.0
 11
35.82147567350506
 21
46.68521501543837
 31
0.0
  0
LINE
  5
368
330
1F
100
AcDbEntity
  8
0
  6
Continuous
 62
     7
100
AcDbLine
 10
30.02320006776159
 20
52.20064790867845
 30
0.0
 11
32.35665244567721
 21
49.86719553076283
 31
0.0
  0
LINE
  5
369
330
1F
100
AcDbEntity
  8
0
  6
Continuous
 62
     7
100
AcDbLine
 10
33.56154493342976
 20
45.01931416534802
 30
0.0
 11
33.56154493342979
 21
46.27548349862443
 31
0.0
  0
LINE
  5
36A
330
1F
100
AcDbEntity
  8
0
  6
Continuous
 62
     7
100
AcDbLine
 10
33.74154493342977
 20
46.27548349862444
 30
0.0
 11
33.74154493342977
 21
45.01931416534802
 31
0.0
  0
LINE
  5
36B
330
1F
100
AcDbEntity
  8
0
  6
Continuous
 62
     7
100
AcDbLine
 10
34.10154493342969
 20
46.11977194414614
 30
0.0
 11
34.10154493342969
 21
45.22700647304029
 31
0.0
  0
LINE
  5
36C
330
1F
100
AcDbEntity
  8
0
  6
Continuous
 62
     7
100
AcDbLine
 10
33.92154493342972
 20
45.22700647304029
 30
0.0
 11
33.92154493342969
 21
46.11977194414614
 31
0.0
  0
LINE
  5
36D
330
1F
100
AcDbEntity
  8
0
  6
Continuous
 62
     7
100
AcDbLine
 10
32.93154493342979
 20
44.32338920859323
 30
0.0
 11
35.20398245771798
 21
45.63441085722105
 31
0.0
  0
LINE
  5
36E
330
1F
100
AcDbEntity
  8
0
  6
Continuous
 62
     7
100
AcDbLine
 10
36.63005431725392
 20
33.00653535898297
 30
0.0
 11
36.63005431725392
 21
33.35653535898297
 31
0.0
  0
LINE
  5
36F
330
1F
100
AcDbEntity
  8
0
  6
Continuous
 62
     7
100
AcDbLine
 10
33.24804783885139
 20
44.76519009565971
 30
0.0
 11
32.93154493342979
 21
45.31338920859325
 31
0.0
  0
LINE
  5
370
330
1F
100
AcDbEntity
  8
0
  6
Continuous
 62
     7
100
AcDbLine
 10
32.93154493342979
 20
45.31338920859325
 30
0.0
 11
32.61504202800805
 21
44.76519009565973
 31
0.0
  0
LINE
  5
371
330
1F
100
AcDbEntity
  8
0
  6
Continuous
 62
     7
100
AcDbLine
 10
32.48154493342977
 20
44.80096053434387
 30
0.0
 11
32.48154493342977
 21
46.53515655953073
 31
0.0
  0
LINE
  5
372
330
1F
100
AcDbEntity
  8
0
  6
Continuous
 62
     7
100
AcDbLine
 10
32.1215449334297
 20
45.1751410724082
 30
0.0
 11
32.12154493342973
 21
45.58338920859325
 31
0.0
  0
LINE
  5
373
330
1F
100
AcDbEntity
  8
0
  6
Continuous
 62
     7
100
AcDbLine
 10
32.12154493342973
 20
45.76338920859325
 30
0.0
 11
32.1215449334297
 21
46.17163734477825
 31
0.0
  0
LINE
  5
374
330
1F
100
AcDbEntity
  8
0
  6
Continuous
 62
     7
100
AcDbLine
 10
32.66154493342978
 20
46.53515655953074
 30
0.0
 11
32.66154493342978
 21
45.20573549054959
 31
0.0
  0
LINE
  5
375
330
1F
100
AcDbEntity
  8
0
  6
Continuous
 62
     7
100
AcDbLine
 10
32.16656991261573
 20
44.94135746260363
 30
0.0
 11
31.80656991261569
 21
45.14904977029593
 31
0.0
  0
LINE
  5
376
330
1F
100
AcDbEntity
  8
0
  6
Continuous
 62
     7
100
AcDbLine
 10
31.8965199542437
 20
45.30496317578471
 30
0.0
 11
32.1215449334297
 21
45.1751410724082
 31
0.0
  0
LINE
  5
377
330
1F
100
AcDbEntity
  8
0
  6
Continuous
 62
     7
100
AcDbLine
 10
32.66154493342978
 20
45.20573549054959
 30
0.0
 11
32.89257379025949
 21
45.60588920859325
 31
0.0
  0
LINE
  5
378
330
1F
100
AcDbEntity
  8
0
  6
Continuous
 62
     7
100
AcDbLine
 10
32.97051607660006
 20
45.60588920859325
 30
0.0
 11
33.20154493342977
 21
45.20573549054959
 31
0.0
  0
LINE
  5
379
330
1F
100
AcDbEntity
  8
0
  6
Continuous
 62
     7
100
AcDbLine
 10
33.20154493342977
 20
45.20573549054959
 30
0.0
 11
33.20154493342974
 21
46.11954123898232
 31
0.0
  0
LINE
  5
37A
330
1F
100
AcDbEntity
  8
0
  6
Continuous
 62
     7
100
AcDbLine
 10
33.38154493342975
 20
46.11954123898232
 30
0.0
 11
33.38154493342975
 21
44.80096053434389
 31
0.0
  0
LINE
  5
37B
330
1F
100
AcDbEntity
  8
0
  6
Continuous
 62
     7
100
AcDbLine
 10
32.30154493342974
 20
46.32746425183843
 30
0.0
 11
32.30154493342974
 21
45.01931416534802
 31
0.0
  0
LINE
  5
37C
330
1F
100
AcDbEntity
  8
0
  6
Continuous
 62
     7
100
AcDbLine
 10
32.12154493342973
 20
45.58338920859325
 30
0.0
 11
31.85154493342975
 21
45.58338920859321
 31
0.0
  0
LINE
  5
37D
330
1F
100
AcDbEntity
  8
0
  6
Continuous
 62
     7
100
AcDbLine
 10
31.85154493342975
 20
45.76338920859325
 30
0.0
 11
32.12154493342973
 21
45.76338920859325
 31
0.0
  0
LINE
  5
37E
330
1F
100
AcDbEntity
  8
0
  6
Continuous
 62
     7
100
AcDbLine
 10
32.1215449334297
 20
46.17163734477825
 30
0.0
 11
31.89651995424373
 21
46.04181524140172
 31
0.0
  0
LINE
  5
37F
330
1F
100
AcDbEntity
  8
0
  6
Continuous
 62
     7
100
AcDbLine
 10
31.80656991261569
 20
46.19772864689051
 30
0.0
 11
32.1665699126157
 21
46.40542095458281
 31
0.0
  0
LINE
  5
380
330
1F
100
AcDbEntity
  8
0
  6
Continuous
 62
     7
100
AcDbLine
 10
32.55879456662319
 20
43.75467110509796
 30
0.0
 11
32.55879456662319
 21
43.90467110509795
 31
0.0
  0
LINE
  5
381
330
1F
100
AcDbEntity
  8
0
  6
Continuous
 62
     7
100
AcDbLine
 10
32.55879456662319
 20
43.90467110509795
 30
0.0
 11
32.08471037252315
 21
43.90467110509795
 31
0.0
  0
LINE
  5
382
330
1F
100
AcDbEntity
  8
0
  6
Continuous
 62
     7
100
AcDbLine
 10
32.08471037252315
 20
43.90467110509795
 30
0.0
 11
32.08471037252315
 21
43.75467110509796
 31
0.0
  0
LINE
  5
383
330
1F
100
AcDbEntity
  8
0
  6
Continuous
 62
     7
100
AcDbLine
 10
32.08471037252315
 20
43.75467110509796
 30
0.0
 11
32.55879456662319
 21
43.75467110509796
 31
0.0
  0
LINE
  5
384
330
1F
100
AcDbEntity
  8
0
  6
Continuous
 62
     7
100
AcDbLine
 10
29.93005431725393
 20
43.45653535898299
 30
0.0
 11
30.13005431725395
 21
43.45653535898299
 31
0.0
  0
LINE
  5
385
330
1F
100
AcDbEntity
  8
0
  6
Continuous
 62
     7
100
AcDbLine
 10
28.93005431725393
 20
43.45653535898299
 30
0.0
 11
29.93005431725393
 21
43.45653535898299
 31
0.0
  0
LINE
  5
386
330
1F
100
AcDbEntity
  8
0
  6
Continuous
 62
     7
100
AcDbLine
 10
30.13005431725395
 20
43.55653535898297
 30
0.0
 11
30.13005431725395
 21
46.55653535898297
 31
0.0
  0
LINE
  5
387
330
1F
100
AcDbEntity
  8
0
  6
Continuous
 62
     7
100
AcDbLine
 10
30.65910740914148
 20
45.63441085722106
 30
0.0
 11
32.93154493342979
 21
44.32338920859323
 31
0.0
  0
LINE
  5
388
330
1F
100
AcDbEntity
  8
0
  6
Continuous
 62
     7
100
AcDbLine
 10
28.93005431725393
 20
46.556535358983
 30
0.0
 11
28.93005431725393
 21
46.65653535898299
 31
0.0
  0
LINE
  5
389
330
1F
100
AcDbEntity
  8
0
  6
Continuous
 62
     7
100
AcDbLine
 10
30.43005431725393
 20
46.65653535898299
 30
0.0
 11
30.13005431725395
 21
46.65653535898299
 31
0.0
  0
LINE
  5
38A
330
1F
100
AcDbEntity
  8
0
  6
Continuous
 62
     7
100
AcDbLine
 10
30.13005431725395
 20
46.65653535898299
 30
0.0
 11
29.93005431725393
 21
46.65653535898299
 31
0.0
  0
LINE
  5
38B
330
1F
100
AcDbEntity
  8
0
  6
Continuous
 62
     7
100
AcDbLine
 10
29.93005431725393
 20
46.65653535898299
 30
0.0
 11
28.93005431725393
 21
46.65653535898299
 31
0.0
  0
LINE
  5
38C
330
1F
100
AcDbEntity
  8
0
  6
Continuous
 62
     7
100
AcDbLine
 10
28.93005431725393
 20
46.65653535898299
 30
0.0
 11
28.93005431725393
 21
52.55653535898298
 31
0.0
  0
LINE
  5
38D
330
1F
100
AcDbEntity
  8
0
  6
Continuous
 62
     7
100
AcDbLine
 10
30.13005431725395
 20
46.55653535898297
 30
0.0
 11
30.13005431725395
 21
46.65653535898299
 31
0.0
  0
LINE
  5
38E
330
1F
100
AcDbEntity
  8
1
  6
DOT_CENTER
 62
     7
100
AcDbLine
 10
41.19005431725395
 20
45.05653535898297
 30
0.0
 11
37.67005431725394
 21
45.05653535898297
 31
0.0
  0
LINE
  5
38F
330
1F
100
AcDbEntity
  8
1
  6
DOT_CENTER
 62
     7
100
AcDbLine
 10
39.43005431725396
 20
46.81653535898297
 30
0.0
 11
39.43005431725396
 21
43.29653535898297
 31
0.0
  0
LINE
  5
390
330
1F
100
AcDbEntity
  8
1
  6
DOT_CENTER
 62
     7
100
AcDbLine
 10
45.72185626571996
 20
48.48833730744904
 30
0.0
 11
40.00185626571999
 21
48.48833730744904
 31
0.0
  0
LINE
  5
391
330
1F
100
AcDbEntity
  8
1
  6
DOT_CENTER
 62
     7
100
AcDbLine
 10
42.86185626571995
 20
51.34833730744903
 30
0.0
 11
42.86185626571995
 21
45.62833730744906
 31
0.0
  0
LINE
  5
392
330
1F
100
AcDbEntity
  8
1
  6
DOT_CENTER
 62
     7
100
AcDbLine
 10
38.85825236878793
 20
48.48833730744904
 30
0.0
 11
33.1382523687879
 21
48.48833730744904
 31
0.0
  0
LINE
  5
393
330
1F
100
AcDbEntity
  8
1
  6
DOT_CENTER
 62
     7
100
AcDbLine
 10
35.99825236878792
 20
51.34833730744906
 30
0.0
 11
35.99825236878792
 21
45.62833730744903
 31
0.0
  0
LINE
  5
394
330
1F
100
AcDbEntity
  8
1
  6
DOT_CENTER
 62
     7
100
AcDbLine
 10
45.73315505522578
 20
42.13564452471155
 30
0.0
 11
40.01315505522575
 21
42.13564452471155
 31
0.0
  0
LINE
  5
395
330
1F
100
AcDbEntity
  8
1
  6
DOT_CENTER
 62
     7
100
AcDbLine
 10
42.87315505522577
 20
44.99564452471155
 30
0.0
 11
42.87315505522577
 21
39.27564452471155
 31
0.0
  0
LINE
  5
396
330
1F
100
AcDbEntity
  8
1
  6
DOT_CENTER
 62
     7
100
AcDbLine
 10
35.45600329152296
 20
38.52964334259384
 30
0.0
 11
29.73600329152293
 21
38.52964334259384
 31
0.0
  0
LINE
  5
397
330
1F
100
AcDbEntity
  8
1
  6
DOT_CENTER
 62
     7
100
AcDbLine
 10
32.59600329152295
 20
41.38964334259386
 30
0.0
 11
32.59600329152295
 21
35.66964334259382
 31
0.0
  0
LINE
  5
398
330
1F
100
AcDbEntity
  8
1
  6
DOT_CENTER
 62
     7
100
AcDbLine
 10
33.58787707580223
 20
43.12698461994106
 30
0.0
 11
31.05562786334423
 21
43.12698461994106
 31
0.0
  0
LINE
  5
399
330
1F
100
AcDbEntity
  8
1
  6
DOT_CENTER
 62
     7
100
AcDbLine
 10
32.32175246957323
 20
44.39310922617006
 30
0.0
 11
32.32175246957323
 21
41.86086001371204
 31
0.0
  0
LINE
  5
39A
330
1F
100
AcDbEntity
  8
1
  6
DOT_CENTER
 62
     7
100
AcDbLine
 10
39.43005431725393
 20
34.07787742627257
 30
0.0
 11
39.43005431725393
 21
36.35653535898301
 31
0.0
  0
LINE
  5
39B
330
1F
100
AcDbEntity
  8
1
  6
DOT_CENTER
 62
     7
100
AcDbLine
 10
39.43005431725391
 20
33.00653535898297
 30
0.0
 11
39.43005431725393
 21
33.37787742627257
 31
0.0
  0
ARC
  5
39C
102
{ACAD_REACTORS
330
472
102
}
330
1F
100
AcDbEntity
  8
1
  6
Continuous
 62
     7
100
AcDbCircle
 10
97.8381503443714
 20
5.42336530453161
 30
0.0
 40
0.1666666666666586
100
AcDbArc
 50
299.9816393688334
 51
119.9816393688365
  0
ARC
  5
39D
102
{ACAD_REACTORS
330
472
102
}
330
1F
100
AcDbEntity
  8
1
  6
Continuous
 62
     7
100
AcDbCircle
 10
97.8381503443714
 20
6.25
 30
0.0
 40
0.1666666666666847
100
AcDbArc
 50
270.0
 51
90.0
  0
ARC
  5
39E
102
{ACAD_REACTORS
330
472
102
}
330
1F
100
AcDbEntity
  8
1
  6
Continuous
 62
     7
100
AcDbCircle
 10
97.8381503443714
 20
7.07663469546833
 30
0.0
 40
0.1666666666666806
100
AcDbArc
 50
240.018360631154
 51
60.01836063115638
  0
ARC
  5
39F
102
{ACAD_REACTORS
330
473
102
}
330
1F
100
AcDbEntity
  8
1
  6
Continuous
 62
     7
100
AcDbCircle
 10
93.8381503443714
 20
5.42336530453161
 30
0.0
 40
0.1666666666666998
100
AcDbArc
 50
180.0
 51
0.0
  0
ARC
  5
3A0
102
{ACAD_REACTORS
330
473
102
}
330
1F
100
AcDbEntity
  8
1
  6
Continuous
 62
     7
100
AcDbCircle
 10
93.8381503443714
 20
7.07663469546833
 30
0.0
 40
0.1666666666666572
100
AcDbArc
 50
0.0
 51
180.0
  0
ARC
  5
3A1
102
{ACAD_REACTORS
330
474
102
}
330
1F
100
AcDbEntity
  8
1
  6
Continuous
 62
     7
100
AcDbCircle
 10
95.6714836777047
 20
4.36567299683935
 30
0.0
 40
0.1666666666666783
100
AcDbArc
 50
240.0183606311536
 51
60.01836063113668
  0
ARC
  5
3A2
102
{ACAD_REACTORS
330
474
102
}
330
1F
100
AcDbEntity
  8
1
  6
Continuous
 62
     7
100
AcDbCircle
 10
94.50481701103806
 20
7.46125008008369
 30
0.0
 40
0.166666666666643
100
AcDbArc
 50
0.0
 51
180.0
  0
ARC
  5
3A3
102
{ACAD_REACTORS
330
475
102
}
330
1F
100
AcDbEntity
  8
1
  6
Continuous
 62
     7
100
AcDbCircle
 10
96.53900057146706
 20
7.86560865601728
 30
0.0
 40
0.1324831062376433
100
AcDbArc
 50
0.0
 51
149.9999999999716
  0
ARC
  5
3A4
102
{ACAD_REACTORS
330
475
102
}
330
1F
100
AcDbEntity
  8
1
  6
Continuous
 62
     7
100
AcDbCircle
 10
96.5048170110381
 20
4.6541345353009
 30
0.0
 40
0.1666666666666998
100
AcDbArc
 50
180.0
 51
0.0
  0
ARC
  5
3A5
102
{ACAD_REACTORS
330
475
102
}
330
1F
100
AcDbEntity
  8
1
  6
Continuous
 62
     7
100
AcDbCircle
 10
95.1714836777047
 20
5.42379253631645
 30
0.0
 40
0.166666666666643
100
AcDbArc
 50
180.0
 51
0.0
  0
ARC
  5
3A6
102
{ACAD_REACTORS
330
475
102
}
330
1F
100
AcDbEntity
  8
1
  6
Continuous
 62
     7
100
AcDbCircle
 10
95.1373001172757
 20
7.86560865601728
 30
0.0
 40
0.1324831062376427
100
AcDbArc
 50
30.00000000001921
 51
180.0
  0
ARC
  5
3A7
330
1F
100
AcDbEntity
  8
0
  6
Continuous
 62
     7
100
AcDbCircle
 10
90.04721161192936
 20
89.43520513082201
 30
0.0
 40
5.600000000000005
100
AcDbArc
 50
8.25595822582694
 51
29.99999999999969
  0
ARC
  5
3A8
330
1F
100
AcDbEntity
  8
0
  6
Continuous
 62
     7
100
AcDbCircle
 10
90.04721161192936
 20
89.43520513082201
 30
0.0
 40
5.600000000000025
100
AcDbArc
 50
330.0000000000002
 51
351.744041774173
  0
ARC
  5
3A9
330
1F
100
AcDbEntity
  8
0
  6
Continuous
 62
     7
100
AcDbCircle
 10
38.84695353390404
 20
89.43520513082201
 30
0.0
 40
2.900000000000005
100
AcDbArc
 50
4.94542971788332
 51
39.88976266132902
  0
ARC
  5
3AA
330
1F
100
AcDbEntity
  8
0
  6
Continuous
 62
     7
100
AcDbCircle
 10
38.84695353390404
 20
89.43520513082201
 30
0.0
 40
2.90000000000001
100
AcDbArc
 50
320.110237338671
 51
355.0545702821167
  0
ARC
  5
3AB
330
1F
100
AcDbEntity
  8
0
  6
Continuous
 62
     7
100
AcDbCircle
 10
38.84695353390404
 20
89.43520513082201
 30
0.0
 40
2.800000000000014
100
AcDbArc
 50
216.7867892982622
 51
233.2132107017384
  0
ARC
  5
3AC
330
1F
100
AcDbEntity
  8
0
  6
Continuous
 62
     7
100
AcDbCircle
 10
38.84695353390404
 20
89.43520513082201
 30
0.0
 40
2.900000000000002
100
AcDbArc
 50
275.1785152306226
 51
310.2193368931494
  0
ARC
  5
3AD
330
1F
100
AcDbEntity
  8
0
  6
Continuous
 62
     7
100
AcDbCircle
 10
38.84695353390404
 20
89.43520513082201
 30
0.0
 40
2.899999999999976
100
AcDbArc
 50
184.9454297178834
 51
220.2193368931497
  0
ARC
  5
3AE
330
1F
100
AcDbEntity
  8
0
  6
Continuous
 62
     7
100
AcDbCircle
 10
38.84695353390404
 20
89.43520513082201
 30
0.0
 40
2.89999999999999
100
AcDbArc
 50
230.1102373386711
 51
265.2875737748313
  0
ARC
  5
3AF
330
1F
100
AcDbEntity
  8
0
  6
Continuous
 62
     7
100
AcDbCircle
 10
38.84695353390404
 20
89.43520513082201
 30
0.0
 40
2.900000000000009
100
AcDbArc
 50
94.71242622516866
 51
129.8897626613292
  0
ARC
  5
3B0
330
1F
100
AcDbEntity
  8
0
  6
Continuous
 62
     7
100
AcDbCircle
 10
38.84695353390404
 20
89.43520513082201
 30
0.0
 40
2.90000000000001
100
AcDbArc
 50
49.78066310685063
 51
84.82148476937742
  0
ARC
  5
3B1
330
1F
100
AcDbEntity
  8
0
  6
Continuous
 62
     7
100
AcDbCircle
 10
38.84695353390404
 20
89.43520513082201
 30
0.0
 40
2.899999999999988
100
AcDbArc
 50
139.7806631068503
 51
175.0545702821166
  0
ARC
  5
3B2
330
1F
100
AcDbEntity
  8
0
  6
Continuous
 62
     7
100
AcDbCircle
 10
38.84695353390404
 20
89.43520513082201
 30
0.0
 40
2.799999999999988
100
AcDbArc
 50
36.78678929826159
 51
53.21321070173772
  0
ARC
  5
3B3
330
1F
100
AcDbEntity
  8
0
  6
Continuous
 62
     7
100
AcDbCircle
 10
38.84695353390404
 20
89.43520513082201
 30
0.0
 40
2.800000000000008
100
AcDbArc
 50
233.2132107017384
 51
36.78678929826159
  0
ARC
  5
3B4
330
1F
100
AcDbEntity
  8
0
  6
Continuous
 62
     7
100
AcDbCircle
 10
38.84695353390404
 20
89.43520513082201
 30
0.0
 40
2.800000000000014
100
AcDbArc
 50
53.21321070173772
 51
216.7867892982622
  0
ARC
  5
3B5
330
1F
100
AcDbEntity
  8
0
  6
Continuous
 62
     7
100
AcDbCircle
 10
32.59695353390407
 20
135.8852055123774
 30
0.0
 40
1.0
100
AcDbArc
 50
90.0
 51
180.0
  0
ARC
  5
3B6
330
1F
100
AcDbEntity
  8
0
  6
Continuous
 62
     7
100
AcDbCircle
 10
36.6019591018397
 20
136.3852055123774
 30
0.0
 40
0.4999999999999992
100
AcDbArc
 50
12.55585779858193
 51
90.0
  0
ARC
  5
3B7
330
1F
100
AcDbEntity
  8
0
  6
Continuous
 62
     7
100
AcDbCircle
 10
38.84695353390404
 20
136.8354632511846
 30
0.0
 40
5.600000000000033
100
AcDbArc
 50
98.25595822582692
 51
120.0000000000002
  0
ARC
  5
3B8
330
1F
100
AcDbEntity
  8
0
  6
Continuous
 62
     7
100
AcDbCircle
 10
38.84695353390404
 20
136.8354632511846
 30
0.0
 40
5.599999999999958
100
AcDbArc
 50
59.99999999999963
 51
81.74404177417317
  0
ARC
  5
3B9
330
1F
100
AcDbEntity
  8
0
  6
Continuous
 62
     7
100
AcDbCircle
 10
36.54695353390406
 20
127.1352055123775
 30
0.0
 40
1.5
100
AcDbArc
 50
0.0
 51
90.0
  0
ARC
  5
3BA
330
1F
100
AcDbEntity
  8
0
  6
Continuous
 62
     7
100
AcDbCircle
 10
41.14695353390405
 20
127.1352055123775
 30
0.0
 40
1.5
100
AcDbArc
 50
90.0
 51
180.0
  0
ARC
  5
3BB
330
1F
100
AcDbEntity
  8
0
  6
Continuous
 62
     7
100
AcDbCircle
 10
31.34695353390407
 20
122.1352055123774
 30
0.0
 40
2.25
100
AcDbArc
 50
180.0
 51
270.0
  0
ARC
  5
3BC
330
1F
100
AcDbEntity
  8
0
  6
Continuous
 62
     7
100
AcDbCircle
 10
30.84695353390404
 20
121.6352055123774
 30
0.0
 40
4.0
100
AcDbArc
 50
180.0
 51
270.0
  0
ARC
  5
3BD
330
1F
100
AcDbEntity
  8
0
  6
Continuous
 62
     7
100
AcDbCircle
 10
31.34695353390407
 20
137.1352055123774
 30
0.0
 40
2.25
100
AcDbArc
 50
90.0
 51
180.0
  0
ARC
  5
3BE
330
1F
100
AcDbEntity
  8
0
  6
Continuous
 62
     7
100
AcDbCircle
 10
41.14695353390405
 20
132.1352055123774
 30
0.0
 40
1.5
100
AcDbArc
 50
180.0
 51
270.0
  0
ARC
  5
3BF
330
1F
100
AcDbEntity
  8
0
  6
Continuous
 62
     7
100
AcDbCircle
 10
46.84695353390407
 20
137.6352055123775
 30
0.0
 40
4.0
100
AcDbArc
 50
0.0
 51
90.0
  0
ARC
  5
3C0
330
1F
100
AcDbEntity
  8
0
  6
Continuous
 62
     7
100
AcDbCircle
 10
46.34695353390407
 20
137.1352055123774
 30
0.0
 40
2.25
100
AcDbArc
 50
0.0
 51
90.0
  0
ARC
  5
3C1
330
1F
100
AcDbEntity
  8
0
  6
Continuous
 62
     7
100
AcDbCircle
 10
45.09695353390407
 20
123.3852055123774
 30
0.0
 40
1.0
100
AcDbArc
 50
270.0
 51
0.0
  0
ARC
  5
3C2
330
1F
100
AcDbEntity
  8
0
  6
Continuous
 62
     7
100
AcDbCircle
 10
32.59695353390407
 20
123.3852055123774
 30
0.0
 40
1.0
100
AcDbArc
 50
180.0
 51
270.0
  0
ARC
  5
3C3
330
1F
100
AcDbEntity
  8
0
  6
Continuous
 62
     7
100
AcDbCircle
 10
46.84695353390407
 20
121.6352055123774
 30
0.0
 40
4.0
100
AcDbArc
 50
270.0
 51
0.0
  0
ARC
  5
3C4
330
1F
100
AcDbEntity
  8
0
  6
Continuous
 62
     7
100
AcDbCircle
 10
46.34695353390407
 20
122.1352055123774
 30
0.0
 40
2.25
100
AcDbArc
 50
270.0
 51
0.0
  0
ARC
  5
3C5
330
1F
100
AcDbEntity
  8
0
  6
Continuous
 62
     7
100
AcDbCircle
 10
38.84695353390407
 20
136.8852055123774
 30
0.0
 40
1.800000000000005
100
AcDbArc
 50
243.6122000387567
 51
296.3877999612425
  0
ARC
  5
3C6
330
1F
100
AcDbEntity
  8
0
  6
Continuous
 62
     7
100
AcDbCircle
 10
36.54695353390406
 20
132.1352055123775
 30
0.0
 40
1.5
100
AcDbArc
 50
270.0
 51
0.0
  0
ARC
  5
3C7
330
1F
100
AcDbEntity
  8
0
  6
Continuous
 62
     7
100
AcDbCircle
 10
38.84695353390407
 20
136.8852055123774
 30
0.0
 40
1.80000000000001
100
AcDbArc
 50
192.555857798587
 51
243.6122000387567
  0
ARC
  5
3C8
330
1F
100
AcDbEntity
  8
0
  6
Continuous
 62
     7
100
AcDbCircle
 10
45.09695353390407
 20
135.8852055123774
 30
0.0
 40
1.0
100
AcDbArc
 50
0.0
 51
90.0
  0
ARC
  5
3C9
330
1F
100
AcDbEntity
  8
0
  6
Continuous
 62
     7
100
AcDbCircle
 10
38.84695353390407
 20
136.8852055123774
 30
0.0
 40
1.799999999999992
100
AcDbArc
 50
296.3877999612425
 51
347.444142201413
  0
ARC
  5
3CA
330
1F
100
AcDbEntity
  8
0
  6
Continuous
 62
     7
100
AcDbCircle
 10
41.09194796596842
 20
136.3852055123774
 30
0.0
 40
0.5
100
AcDbArc
 50
90.0
 51
167.4441422014175
  0
ARC
  5
3CB
330
1F
100
AcDbEntity
  8
0
  6
Continuous
 62
     7
100
AcDbCircle
 10
30.84695353390396
 20
137.6352055123775
 30
0.0
 40
3.999999999999915
100
AcDbArc
 50
90.0
 51
180.0000000000013
  0
ARC
  5
3CC
330
1F
100
AcDbEntity
  8
0
  6
Continuous
 62
     7
100
AcDbCircle
 10
38.61592677303347
 20
41.9315576972999
 30
0.0
 40
0.0999999999999862
100
AcDbArc
 50
311.9999999999833
 51
42.00000000000937
  0
ARC
  5
3CD
330
1F
100
AcDbEntity
  8
0
  6
Continuous
 62
     7
100
AcDbCircle
 10
39.43005431725391
 20
37.85627762017582
 30
0.0
 40
5.59999999999999
100
AcDbArc
 50
278.2559582258269
 51
300.0000000000001
  0
ARC
  5
3CE
330
1F
100
AcDbEntity
  8
0
  6
Continuous
 62
     7
100
AcDbCircle
 10
39.43005431725391
 20
37.85627762017582
 30
0.0
 40
5.599999999999985
100
AcDbArc
 50
240.0
 51
261.744041774173
  0
ARC
  5
3CF
330
1F
100
AcDbEntity
  8
0
  6
Continuous
 62
     7
100
AcDbCircle
 10
35.18149494731094
 20
45.67338920859323
 30
0.0
 40
0.1950000000000008
100
AcDbArc
 50
299.9816393688549
 51
60.01836063113939
  0
ARC
  5
3D0
330
1F
100
AcDbEntity
  8
0
  6
Continuous
 62
     7
100
AcDbCircle
 10
30.68159491954853
 20
45.67338920859324
 30
0.0
 40
0.1949999999999584
100
AcDbArc
 50
119.98163936885
 51
240.0183606311552
  0
ARC
  5
3D1
330
1F
100
AcDbEntity
  8
0
  6
Continuous
 62
     7
100
AcDbCircle
 10
47.43005431725396
 20
37.05653535898296
 30
0.0
 40
4.0
100
AcDbArc
 50
270.0
 51
0.0
  0
ARC
  5
3D2
330
1F
100
AcDbEntity
  8
0
  6
Continuous
 62
     7
100
AcDbCircle
 10
46.93005431725393
 20
37.55653535898298
 30
0.0
 40
3.0
100
AcDbArc
 50
270.0
 51
0.00000000000041
  0
ARC
  5
3D3
330
1F
100
AcDbEntity
  8
0
  6
Continuous
 62
     7
100
AcDbCircle
 10
46.93005431725393
 20
52.55653535898298
 30
0.0
 40
3.0
100
AcDbArc
 50
0.0
 51
90.0
  0
ARC
  5
3D4
330
1F
100
AcDbEntity
  8
0
  6
Continuous
 62
     7
100
AcDbCircle
 10
47.43005431725396
 20
53.05653535898298
 30
0.0
 40
4.0
100
AcDbArc
 50
0.0
 51
90.0
  0
ARC
  5
3D5
330
1F
100
AcDbEntity
  8
0
  6
Continuous
 62
     7
100
AcDbCircle
 10
36.31217781405354
 20
39.85725281758744
 30
0.0
 40
0.1000000000000053
100
AcDbArc
 50
221.9999999999955
 51
311.9999999999894
  0
ARC
  5
3D6
330
1F
100
AcDbEntity
  8
0
  6
Continuous
 62
     7
100
AcDbCircle
 10
32.57154493342978
 20
46.53515655953074
 30
0.0
 40
0.0900000000000034
100
AcDbArc
 50
0.0
 51
180.0000000000045
  0
ARC
  5
3D7
330
1F
100
AcDbEntity
  8
0
  6
Continuous
 62
     7
100
AcDbCircle
 10
33.02154493342971
 20
46.69092579029996
 30
0.0
 40
0.0900000000000516
100
AcDbArc
 50
60.01836063114706
 51
240.018360631151
  0
ARC
  5
3D8
330
1F
100
AcDbEntity
  8
0
  6
Continuous
 62
     7
100
AcDbCircle
 10
33.56154493342979
 20
46.27548349862443
 30
0.0
 40
0.1799999999999784
100
AcDbArc
 50
0.00000000000226
 51
60.01836063116234
  0
ARC
  5
3D9
330
1F
100
AcDbEntity
  8
0
  6
Continuous
 62
     7
100
AcDbCircle
 10
34.01154493342969
 20
46.11977194414614
 30
0.0
 40
0.0900000000000034
100
AcDbArc
 50
0.0
 51
180.0
  0
ARC
  5
3DA
330
1F
100
AcDbEntity
  8
0
  6
Continuous
 62
     7
100
AcDbCircle
 10
33.65154493342976
 20
45.01931416534802
 30
0.0
 40
0.0900000000000034
100
AcDbArc
 50
180.0
 51
0.0
  0
ARC
  5
3DB
330
1F
100
AcDbEntity
  8
0
  6
Continuous
 62
     7
100
AcDbCircle
 10
34.01154493342969
 20
45.2270064730403
 30
0.0
 40
0.0899999999999679
100
AcDbArc
 50
180.0000000000045
 51
359.9999999999955
  0
ARC
  5
3DC
330
1F
100
AcDbEntity
  8
0
  6
Continuous
 62
     7
100
AcDbCircle
 10
35.18149494731094
 20
45.67338920859323
 30
0.0
 40
0.0449999999999976
100
AcDbArc
 50
299.9816393688632
 51
60.0183606311368
  0
ARC
  5
3DD
330
1F
100
AcDbEntity
  8
0
  6
Continuous
 62
     7
100
AcDbCircle
 10
31.85154493342975
 20
45.2270064730403
 30
0.0
 40
0.0899999999999744
100
AcDbArc
 50
60.01836063122316
 51
240.0183606311488
  0
ARC
  5
3DE
330
1F
100
AcDbEntity
  8
0
  6
Continuous
 62
     7
100
AcDbCircle
 10
31.85154493342975
 20
45.67338920859323
 30
0.0
 40
0.0900000000000247
100
AcDbArc
 50
90.0
 51
270.0
  0
ARC
  5
3DF
330
1F
100
AcDbEntity
  8
0
  6
Continuous
 62
     7
100
AcDbCircle
 10
31.85154493342975
 20
46.11977194414614
 30
0.0
 40
0.0899999999999987
100
AcDbArc
 50
119.9816393688489
 51
299.9816393687903
  0
ARC
  5
3E0
330
1F
100
AcDbEntity
  8
0
  6
Continuous
 62
     7
100
AcDbCircle
 10
33.29154493342975
 20
46.11954123898232
 30
0.0
 40
0.0900000000000034
100
AcDbArc
 50
0.0
 51
180.0
  0
ARC
  5
3E1
330
1F
100
AcDbEntity
  8
0
  6
Continuous
 62
     7
100
AcDbCircle
 10
32.21154493342976
 20
45.01931416534802
 30
0.0
 40
0.0900000000000012
100
AcDbArc
 50
240.0183606311755
 51
0.0
  0
ARC
  5
3E2
330
1F
100
AcDbEntity
  8
0
  6
Continuous
 62
     7
100
AcDbCircle
 10
32.55308581079808
 20
44.80096053434387
 30
0.0
 40
0.0715408773683137
100
AcDbArc
 50
180.0
 51
330.0000000000046
  0
ARC
  5
3E3
330
1F
100
AcDbEntity
  8
0
  6
Continuous
 62
     7
100
AcDbCircle
 10
33.31000405606139
 20
44.80096053434388
 30
0.0
 40
0.071540877368327
100
AcDbArc
 50
210.0000000000037
 51
0.00000000001138
  0
ARC
  5
3E4
330
1F
100
AcDbEntity
  8
0
  6
Continuous
 62
     7
100
AcDbCircle
 10
32.93154493342979
 20
45.58338920859325
 30
0.0
 40
0.044999999999973
100
AcDbArc
 50
30.00000000001066
 51
150.0000000000074
  0
ARC
  5
3E5
330
1F
100
AcDbEntity
  8
0
  6
Continuous
 62
     7
100
AcDbCircle
 10
32.21154493342976
 20
46.32746425183843
 30
0.0
 40
0.0899999999999821
100
AcDbArc
 50
0.0
 51
119.9816393688447
  0
ARC
  5
3E6
330
1F
100
AcDbEntity
  8
0
  6
Continuous
 62
     7
100
AcDbCircle
 10
30.68159491954853
 20
45.67338920859324
 30
0.0
 40
0.045000000000003
100
AcDbArc
 50
119.981639368875
 51
240.018360631125
  0
ARC
  5
3E7
330
1F
100
AcDbEntity
  8
0
  6
Continuous
 62
     7
100
AcDbCircle
 10
31.43005431725385
 20
37.05653535898296
 30
0.0
 40
4.0
100
AcDbArc
 50
180.0
 51
270.0
  0
ARC
  5
3E8
330
1F
100
AcDbEntity
  8
0
  6
Continuous
 62
     7
100
AcDbCircle
 10
31.93005431725393
 20
37.55653535898298
 30
0.0
 40
3.0
100
AcDbArc
 50
179.9999999999996
 51
270.0
  0
ARC
  5
3E9
330
1F
100
AcDbEntity
  8
0
  6
Continuous
 62
     7
100
AcDbCircle
 10
31.43005431725393
 20
53.056535358983
 30
0.0
 40
4.0
100
AcDbArc
 50
90.0
 51
179.9999999999996
  0
ARC
  5
3EA
330
1F
100
AcDbEntity
  8
0
  6
Continuous
 62
     7
100
AcDbCircle
 10
31.93005431725393
 20
52.55653535898298
 30
0.0
 40
3.0
100
AcDbArc
 50
90.0
 51
180.0
  0
CIRCLE
  5
3EB
330
1F
100
AcDbEntity
  8
1
  6
Continuous
 62
     7
100
AcDbCircle
 10
52.79083464465083
 20
4.19798408144603
 30
0.0
 40
1.247468231122653
  0
CIRCLE
  5
3EC
330
1F
100
AcDbEntity
  8
0
  6
Continuous
 62
     7
100
AcDbCircle
 10
35.09695353390401
 20
125.8852055123775
 30
0.0
 40
0.0999999999999546
  0
CIRCLE
  5
3ED
330
1F
100
AcDbEntity
  8
0
  6
Continuous
 62
     7
100
AcDbCircle
 10
35.09695353390401
 20
125.8852055123775
 30
0.0
 40
0.7999999999999683
  0
CIRCLE
  5
3EE
330
1F
100
AcDbEntity
  8
0
  6
Continuous
 62
     7
100
AcDbCircle
 10
35.09695353390407
 20
133.385205512377
 30
0.0
 40
0.0999999999999701
  0
CIRCLE
  5
3EF
330
1F
100
AcDbEntity
  8
0
  6
Continuous
 62
     7
100
AcDbCircle
 10
42.59695353390367
 20
125.8852055123774
 30
0.0
 40
0.0999999999999596
  0
CIRCLE
  5
3F0
330
1F
100
AcDbEntity
  8
0
  6
Continuous
 62
     7
100
AcDbCircle
 10
42.59695353390367
 20
125.8852055123774
 30
0.0
 40
0.7999999999999783
  0
CIRCLE
  5
3F1
330
1F
100
AcDbEntity
  8
0
  6
Continuous
 62
     7
100
AcDbCircle
 10
35.09695353390407
 20
133.385205512377
 30
0.0
 40
0.8000000000000027
  0
CIRCLE
  5
3F2
330
1F
100
AcDbEntity
  8
0
  6
Continuous
 62
     7
100
AcDbCircle
 10
32.96354192855725
 20
132.119378287309
 30
0.0
 40
0.9990978668652417
  0
CIRCLE
  5
3F3
330
1F
100
AcDbEntity
  8
0
  6
Continuous
 62
     7
100
AcDbCircle
 10
32.96354192855725
 20
132.119378287309
 30
0.0
 40
0.8688965049916817
  0
CIRCLE
  5
3F4
330
1F
100
AcDbEntity
  8
0
  6
Continuous
 62
     7
100
AcDbCircle
 10
38.84695353390407
 20
129.6352055123774
 30
0.0
 40
1.300000000000011
  0
CIRCLE
  5
3F5
330
1F
100
AcDbEntity
  8
0
  6
Continuous
 62
     7
100
AcDbCircle
 10
42.59695353390376
 20
132.8852055123775
 30
0.0
 40
0.0999999999999691
  0
CIRCLE
  5
3F6
330
1F
100
AcDbEntity
  8
0
  6
Continuous
 62
     7
100
AcDbCircle
 10
42.59695353390376
 20
132.8852055123775
 30
0.0
 40
0.8000000000000039
  0
CIRCLE
  5
3F7
330
1F
100
AcDbEntity
  8
0
  6
Continuous
 62
     7
100
AcDbCircle
 10
42.87315505522577
 20
42.13564452471155
 30
0.0
 40
2.099999999999992
  0
CIRCLE
  5
3F8
330
1F
100
AcDbEntity
  8
0
  6
Continuous
 62
     7
100
AcDbCircle
 10
42.87315505522577
 20
42.13564452471155
 30
0.0
 40
2.600000000000001
  0
CIRCLE
  5
3F9
330
1F
100
AcDbEntity
  8
0
  6
Continuous
 62
     7
100
AcDbCircle
 10
39.43005431725396
 20
45.05653535898297
 30
0.0
 40
1.300000000000011
  0
CIRCLE
  5
3FA
330
1F
100
AcDbEntity
  8
0
  6
Continuous
 62
     7
100
AcDbCircle
 10
39.43005431725396
 20
45.05653535898297
 30
0.0
 40
1.600000000000023
  0
CIRCLE
  5
3FB
330
1F
100
AcDbEntity
  8
0
  6
Continuous
 62
     7
100
AcDbCircle
 10
35.99825236878792
 20
48.48833730744904
 30
0.0
 40
2.100000000000001
  0
CIRCLE
  5
3FC
330
1F
100
AcDbEntity
  8
0
  6
Continuous
 62
     7
100
AcDbCircle
 10
35.99825236878792
 20
48.48833730744904
 30
0.0
 40
2.60000000000003
  0
CIRCLE
  5
3FD
330
1F
100
AcDbEntity
  8
0
  6
Continuous
 62
     7
100
AcDbCircle
 10
32.59600329152295
 20
38.52964334259384
 30
0.0
 40
2.100000000000021
  0
CIRCLE
  5
3FE
330
1F
100
AcDbEntity
  8
0
  6
Continuous
 62
     7
100
AcDbCircle
 10
42.86185626571995
 20
48.48833730744904
 30
0.0
 40
2.100000000000016
  0
CIRCLE
  5
3FF
330
1F
100
AcDbEntity
  8
0
  6
Continuous
 62
     7
100
AcDbCircle
 10
42.86185626571995
 20
48.48833730744904
 30
0.0
 40
2.599999999999959
  0
CIRCLE
  5
400
330
1F
100
AcDbEntity
  8
0
  6
Continuous
 62
     7
100
AcDbCircle
 10
32.32175246957323
 20
43.12698461994106
 30
0.0
 40
1.001022369299108
  0
CIRCLE
  5
401
330
1F
100
AcDbEntity
  8
0
  6
Continuous
 62
     7
100
AcDbCircle
 10
32.32175246957323
 20
43.12698461994106
 30
0.0
 40
1.151022369299117
  0
CIRCLE
  5
402
330
1F
100
AcDbEntity
  8
0
  6
Continuous
 62
     7
100
AcDbCircle
 10
32.59600329152295
 20
38.52964334259384
 30
0.0
 40
2.600000000000019
  0
SPLINE
  5
403
330
1F
100
AcDbEntity
  8
0
  6
Continuous
 62
     7
100
AcDbSpline
210
0.0
220
0.0
230
1.0
 70
     8
 71
     3
 72
     9
 73
     5
 74
     3
 42
0.000000001
 43
0.0000000001
 44
0.00000001
 40
0.0
 40
0.0
 40
0.0
 40
0.0
 40
0.0822728799875631
 40
0.1641224441635152
 40
0.1641224441635152
 40
0.1641224441635152
 40
0.1641224441635152
 10
95.35169085121385
 20
90.38979928542385
 30
0.0
 10
95.36312878490057
 20
90.36487090485467
 30
0.0
 10
95.38594578278601
 20
90.31514239875088
 30
0.0
 10
95.40681127065768
 20
90.26456407105452
 30
0.0
 10
95.41721709657895
 20
90.23934013082201
 30
0.0
 11
95.35169085121385
 21
90.38979928542385
 31
0.0
 11
95.3855142456299
 21
90.31480058681538
 31
0.0
 11
95.41721709657895
 21
90.23934013082201
 31
0.0
  0
SPLINE
  5
404
330
1F
100
AcDbEntity
  8
0
  6
Continuous
 62
     7
100
AcDbSpline
210
0.0
220
0.0
230
1.0
 70
     8
 71
     3
 72
     9
 73
     5
 74
     3
 42
0.000000001
 43
0.0000000001
 44
0.00000001
 40
0.0
 40
0.0
 40
0.0
 40
0.0
 40
0.1912052590812846
 40
0.380277773671394
 40
0.380277773671394
 40
0.380277773671394
 40
0.380277773671394
 10
95.35169085121385
 20
90.95548471037309
 30
0.0
 10
95.37780065833367
 20
90.89730189282214
 30
0.0
 10
95.42972901970536
 20
90.78158523373799
 30
0.0
 10
95.47081651970346
 20
90.66159163663636
 30
0.0
 10
95.49124504312721
 20
90.60193131977981
 30
0.0
 11
95.35169085121385
 21
90.95548471037309
 31
0.0
 11
95.42727956283824
 21
90.77985499223718
 31
0.0
 11
95.49124504312721
 21
90.60193131977981
 31
0.0
  0
SPLINE
  5
405
330
1F
100
AcDbEntity
  8
0
  6
Continuous
 62
     7
100
AcDbSpline
210
0.0
220
0.0
230
1.0
 70
     8
 71
     3
 72
     9
 73
     5
 74
     3
 42
0.000000001
 43
0.0000000001
 44
0.00000001
 40
0.0
 40
0.0
 40
0.0
 40
0.0
 40
0.1890725145901286
 40
0.3802777736714524
 40
0.3802777736714524
 40
0.3802777736714524
 40
0.3802777736714524
 10
95.49124504312726
 20
88.26847894186425
 30
0.0
 10
95.47081651970352
 20
88.2088186250077
 30
0.0
 10
95.42972901970529
 20
88.08882502790604
 30
0.0
 10
95.3778006583337
 20
87.9731083688219
 30
0.0
 10
95.35169085121385
 20
87.91492555127093
 30
0.0
 11
95.49124504312726
 21
88.26847894186425
 31
0.0
 11
95.42727956283824
 21
88.09055526940688
 31
0.0
 11
95.35169085121385
 21
87.91492555127093
 31
0.0
  0
SPLINE
  5
406
330
1F
100
AcDbEntity
  8
0
  6
Continuous
 62
     7
100
AcDbSpline
210
0.0
220
0.0
230
1.0
 70
     8
 71
     3
 72
     9
 73
     5
 74
     3
 42
0.000000001
 43
0.0000000001
 44
0.00000001
 40
0.0
 40
0.0
 40
0.0
 40
0.0
 40
0.0818495641759651
 40
0.1641224441635283
 40
0.1641224441635283
 40
0.1641224441635283
 40
0.1641224441635283
 10
95.41721709657895
 20
88.63107013082201
 30
0.0
 10
95.40681127065768
 20
88.60584619058952
 30
0.0
 10
95.385945782786
 20
88.55526786289309
 30
0.0
 10
95.3631287849006
 20
88.50553935678934
 30
0.0
 10
95.35169085121385
 20
88.48061097622016
 30
0.0
 11
95.41721709657895
 21
88.63107013082201
 31
0.0
 11
95.3855142456299
 21
88.55560967482863
 31
0.0
 11
95.35169085121385
 21
88.48061097622016
 31
0.0
  0
SPLINE
  5
407
330
1F
100
AcDbEntity
  8
0
  6
Continuous
 62
     7
100
AcDbSpline
210
0.0
220
0.0
230
1.0
 70
     8
 71
     3
 72
     9
 73
     5
 74
     3
 42
0.000000001
 43
0.0000000001
 44
0.00000001
 40
0.0
 40
0.0
 40
0.0
 40
0.0
 40
0.1859773574329833
 40
0.3762299641296506
 40
0.3762299641296506
 40
0.3762299641296506
 40
0.3762299641296506
 10
95.58917578555725
 20
88.63107013082201
 30
0.0
 10
95.57832193681392
 20
88.56990203744694
 30
0.0
 10
95.55636471154531
 20
88.44615972259076
 30
0.0
 10
95.51311542526327
 20
88.32815285301803
 30
0.0
 10
95.49124504312726
 20
88.26847894186425
 30
0.0
 11
95.58917578555725
 21
88.63107013082201
 31
0.0
 11
95.55141150224071
 21
88.44896731205924
 31
0.0
 11
95.49124504312726
 21
88.26847894186425
 31
0.0
  0
SPLINE
  5
408
330
1F
100
AcDbEntity
  8
0
  6
Continuous
 62
     7
100
AcDbSpline
210
0.0
220
0.0
230
1.0
 70
     8
 71
     3
 72
     9
 73
     5
 74
     3
 42
0.000000001
 43
0.0000000001
 44
0.00000001
 40
0.0
 40
0.0
 40
0.0
 40
0.0
 40
0.1077730504632874
 40
0.216198995009674
 40
0.216198995009674
 40
0.216198995009674
 40
0.216198995009674
 10
95.49124504312721
 20
88.83416436681343
 30
0.0
 10
95.47984001124942
 20
88.80009111851287
 30
0.0
 10
95.45696083644144
 20
88.73173821128975
 30
0.0
 10
95.43049166066692
 20
88.66469364405276
 30
0.0
 10
95.41721709657895
 20
88.63107013082201
 30
0.0
 11
95.49124504312721
 21
88.83416436681343
 31
0.0
 11
95.45613785035187
 21
88.73226973761398
 31
0.0
 11
95.41721709657895
 21
88.63107013082201
 31
0.0
  0
SPLINE
  5
409
330
1F
100
AcDbEntity
  8
0
  6
Continuous
 62
     7
100
AcDbSpline
210
0.0
220
0.0
230
1.0
 70
     8
 71
     3
 72
     9
 73
     5
 74
     3
 42
0.000000001
 43
0.0000000001
 44
0.00000001
 40
0.0
 40
0.0
 40
0.0
 40
0.0
 40
0.3051721720337225
 40
0.6093837263159247
 40
0.6093837263159247
 40
0.6093837263159247
 40
0.6093837263159247
 10
95.49124504312721
 20
90.03624589483059
 30
0.0
 10
95.51316036719493
 20
89.93682138150866
 30
0.0
 10
95.5569220108502
 20
89.73828531872701
 30
0.0
 10
95.57843583852767
 20
89.5361256345266
 30
0.0
 10
95.58917578555725
 20
89.43520513082201
 30
0.0
 11
95.49124504312721
 21
90.03624589483059
 31
0.0
 11
95.55141150224071
 21
89.73706358919189
 31
0.0
 11
95.58917578555725
 21
89.43520513082201
 31
0.0
  0
SPLINE
  5
40A
330
1F
100
AcDbEntity
  8
0
  6
Continuous
 62
     7
100
AcDbSpline
210
0.0
220
0.0
230
1.0
 70
     8
 71
     3
 72
     9
 73
     5
 74
     3
 42
0.000000001
 43
0.0000000001
 44
0.00000001
 40
0.0
 40
0.0
 40
0.0
 40
0.0
 40
0.3042115542822022
 40
0.6093837263159386
 40
0.6093837263159386
 40
0.6093837263159386
 40
0.6093837263159386
 10
95.58917578555725
 20
89.43520513082201
 30
0.0
 10
95.57843583852771
 20
89.33428462711741
 30
0.0
 10
95.5569220108502
 20
89.13212494291699
 30
0.0
 10
95.5131603671949
 20
88.93358888013539
 30
0.0
 10
95.49124504312721
 20
88.83416436681343
 30
0.0
 11
95.58917578555725
 21
89.43520513082201
 31
0.0
 11
95.55141150224071
 21
89.13334667245213
 31
0.0
 11
95.49124504312721
 21
88.83416436681343
 31
0.0
  0
SPLINE
  5
40B
330
1F
100
AcDbEntity
  8
0
  6
Continuous
 62
     7
100
AcDbSpline
210
0.0
220
0.0
230
1.0
 70
     8
 71
     3
 72
     9
 73
     5
 74
     3
 42
0.000000001
 43
0.0000000001
 44
0.00000001
 40
0.0
 40
0.0
 40
0.0
 40
0.0
 40
0.1902526066967123
 40
0.3762299641296956
 40
0.3762299641296956
 40
0.3762299641296956
 40
0.3762299641296956
 10
95.49124504312721
 20
90.60193131977981
 30
0.0
 10
95.51311542526324
 20
90.54225740862597
 30
0.0
 10
95.5563647115453
 20
90.42425053905328
 30
0.0
 10
95.57832193681391
 20
90.3005082241971
 30
0.0
 10
95.58917578555725
 20
90.23934013082201
 30
0.0
 11
95.49124504312721
 21
90.60193131977981
 31
0.0
 11
95.55141150224071
 21
90.42144294958479
 31
0.0
 11
95.58917578555725
 21
90.23934013082201
 31
0.0
  0
SPLINE
  5
40C
330
1F
100
AcDbEntity
  8
0
  6
Continuous
 62
     7
100
AcDbSpline
210
0.0
220
0.0
230
1.0
 70
     8
 71
     3
 72
     9
 73
     5
 74
     3
 42
0.000000001
 43
0.0000000001
 44
0.00000001
 40
0.0
 40
0.0
 40
0.0
 40
0.0
 40
0.1084259445464132
 40
0.2161989950096871
 40
0.2161989950096871
 40
0.2161989950096871
 40
0.2161989950096871
 10
95.41721709657895
 20
90.23934013082201
 30
0.0
 10
95.43049166066692
 20
90.20571661759125
 30
0.0
 10
95.45696083644145
 20
90.13867205035422
 30
0.0
 10
95.47984001124941
 20
90.07031914313113
 30
0.0
 10
95.49124504312721
 20
90.03624589483059
 30
0.0
 11
95.41721709657895
 21
90.23934013082201
 31
0.0
 11
95.45613785035187
 21
90.13814052403002
 31
0.0
 11
95.49124504312721
 21
90.03624589483059
 31
0.0
  0
SPLINE
  5
40D
330
1F
100
AcDbEntity
  8
0
  6
Continuous
 62
     7
100
AcDbSpline
210
0.0
220
0.0
230
1.0
 70
     8
 71
     3
 72
     9
 73
     5
 74
     3
 42
0.000000001
 43
0.0000000001
 44
0.00000001
 40
0.0
 40
0.0
 40
0.0
 40
0.0
 40
0.4206786595505339
 40
0.8549809765869122
 40
0.8549809765869122
 40
0.8549809765869122
 40
0.8549809765869122
 10
95.35169085121385
 20
87.91492555127093
 30
0.0
 10
95.28798991438194
 20
87.78964734793898
 30
0.0
 10
95.15852507183462
 20
87.53503382295955
 30
0.0
 10
94.98506560576178
 20
87.3080639007854
 30
0.0
 10
94.89695387312224
 20
87.19277062412084
 30
0.0
 11
95.35169085121385
 21
87.91492555127093
 31
0.0
 11
95.14993709894918
 21
87.54578335839713
 31
0.0
 11
94.89695387312224
 21
87.19277062412084
 31
0.0
  0
SPLINE
  5
40E
330
1F
100
AcDbEntity
  8
0
  6
Continuous
 62
     7
100
AcDbSpline
210
0.0
220
0.0
230
1.0
 70
     8
 71
     3
 72
     9
 73
     5
 74
     3
 42
0.000000001
 43
0.0000000001
 44
0.00000001
 40
0.0
 40
0.0
 40
0.0
 40
0.0
 40
0.4343023170363783
 40
0.8549809765869247
 40
0.8549809765869247
 40
0.8549809765869247
 40
0.8549809765869247
 10
94.89695387312224
 20
87.75845604907006
 30
0.0
 10
94.98506560576178
 20
87.87374932573464
 30
0.0
 10
95.15852507183466
 20
88.10071924790873
 30
0.0
 10
95.28798991438194
 20
88.35533277288825
 30
0.0
 10
95.35169085121385
 20
88.48061097622016
 30
0.0
 11
94.89695387312224
 21
87.75845604907006
 31
0.0
 11
95.14993709894918
 21
88.11146878334635
 31
0.0
 11
95.35169085121385
 21
88.48061097622016
 31
0.0
  0
SPLINE
  5
40F
330
1F
100
AcDbEntity
  8
0
  6
Continuous
 62
     7
100
AcDbSpline
210
0.0
220
0.0
230
1.0
 70
     8
 71
     3
 72
     9
 73
     5
 74
     3
 42
0.000000001
 43
0.0000000001
 44
0.00000001
 40
0.0
 40
0.0
 40
0.0
 40
0.0
 40
0.2832433754466778
 40
0.566486750893384
 40
0.566486750893384
 40
0.566486750893384
 40
0.566486750893384
 10
95.35169085121385
 20
90.38979928542385
 30
0.0
 10
95.35922095803225
 20
90.48408018940503
 30
0.0
 10
95.37428115172574
 20
90.67264199789847
 30
0.0
 10
95.3592209580323
 20
90.86120380639186
 30
0.0
 10
95.35169085121385
 20
90.95548471037309
 30
0.0
 11
95.35169085121385
 21
90.38979928542385
 31
0.0
 11
95.366751064879
 21
90.67264199789845
 31
0.0
 11
95.35169085121385
 21
90.95548471037309
 31
0.0
  0
SPLINE
  5
410
330
1F
100
AcDbEntity
  8
0
  6
Continuous
 62
     7
100
AcDbSpline
210
0.0
220
0.0
230
1.0
 70
     8
 71
     3
 72
    11
 73
     7
 74
     5
 42
0.000000001
 43
0.0000000001
 44
0.00000001
 40
0.0
 40
0.0
 40
0.0
 40
0.0
 40
0.2216799585369168
 40
0.4294668147282097
 40
0.6521137538079225
 40
0.8588306003803864
 40
0.8588306003803864
 40
0.8588306003803864
 40
0.8588306003803864
 10
94.52561180583263
 20
91.66031640800485
 30
0.0
 10
94.46536123415612
 20
91.61753684082996
 30
0.0
 10
94.34863611662273
 20
91.5346587708841
 30
0.0
 10
94.17144129505705
 20
91.40875302358657
 30
0.0
 10
93.9983469730085
 20
91.2856874693887
 30
0.0
 10
93.88174819071808
 20
91.20269096186215
 30
0.0
 10
93.82561180578398
 20
91.1627323545625
 30
0.0
 11
94.52561180583263
 21
91.66031640800485
 31
0.0
 11
94.34486775822087
 21
91.53196691143488
 31
0.0
 11
94.1754845847978
 21
91.41161443672706
 31
0.0
 11
93.99403167514838
 21
91.28259311653777
 31
0.0
 11
93.82561180578398
 21
91.1627323545625
 31
0.0
  0
SPLINE
  5
411
330
1F
100
AcDbEntity
  8
0
  6
Continuous
 62
     7
100
AcDbSpline
210
0.0
220
0.0
230
1.0
 70
     8
 71
     3
 72
    11
 73
     7
 74
     5
 42
0.000000001
 43
0.0000000001
 44
0.00000001
 40
0.0
 40
0.0
 40
0.0
 40
0.0
 40
0.2220556961714751
 40
0.4295551918090946
 40
0.6526894180724445
 40
0.8589902338103781
 40
0.8589902338103781
 40
0.8589902338103781
 40
0.8589902338103781
 10
94.52561180583263
 20
91.57415715278253
 30
0.0
 10
94.46526672240908
 20
91.53129435953969
 30
0.0
 10
94.34853230648922
 20
91.4483785039624
 30
0.0
 10
94.17120988730798
 20
91.32232105402898
 30
0.0
 10
93.99820782640037
 20
91.19925005613331
 30
0.0
 10
93.88162044142119
 20
91.11619659354095
 30
0.0
 10
93.82561180581246
 20
91.0762976612421
 30
0.0
 11
94.52561180583263
 21
91.57415715278253
 31
0.0
 11
94.34458538268831
 21
91.44555635058595
 31
0.0
 11
94.17546381062135
 21
91.32533183331519
 31
0.0
 11
93.99365025774584
 21
91.19597683757335
 31
0.0
 11
93.82561180581246
 21
91.0762976612421
 31
0.0
  0
SPLINE
  5
412
330
1F
100
AcDbEntity
  8
0
  6
Continuous
 62
     7
100
AcDbSpline
210
0.0
220
0.0
230
1.0
 70
     8
 71
     3
 72
    11
 73
     7
 74
     5
 42
0.000000001
 43
0.0000000001
 44
0.00000001
 40
0.0
 40
0.0
 40
0.0
 40
0.0
 40
0.2063008150364052
 40
0.4294350420012835
 40
0.6369345385381979
 40
0.8589902338103862
 40
0.8589902338103862
 40
0.8589902338103862
 40
0.8589902338103862
 10
93.82561180581246
 20
87.79411260040193
 30
0.0
 10
93.8816204412307
 20
87.75421366823873
 30
0.0
 10
93.99820782620989
 20
87.67116020564632
 30
0.0
 10
94.17120988736166
 20
87.54808920757671
 30
0.0
 10
94.3485323067336
 20
87.42203175750805
 30
0.0
 10
94.46526672265348
 20
87.33911590193073
 30
0.0
 10
94.52561180583263
 20
87.29625310886148
 30
0.0
 11
93.82561180581246
 21
87.79411260040193
 31
0.0
 11
93.99365025717432
 21
87.6744334244775
 31
0.0
 11
94.17546381062135
 21
87.54507842832884
 31
0.0
 11
94.34458538342136
 21
87.42485391053715
 31
0.0
 11
94.52561180583263
 21
87.29625310886148
 31
0.0
  0
SPLINE
  5
413
330
1F
100
AcDbEntity
  8
0
  6
Continuous
 62
     7
100
AcDbSpline
210
0.0
220
0.0
230
1.0
 70
     8
 71
     3
 72
    11
 73
     7
 74
     5
 42
0.000000001
 43
0.0000000001
 44
0.00000001
 40
0.0
 40
0.0
 40
0.0
 40
0.0
 40
0.2067168466289584
 40
0.4293637856521685
 40
0.6371506402308987
 40
0.8588306003803865
 40
0.8588306003803865
 40
0.8588306003803865
 40
0.8588306003803865
 10
93.82561180578398
 20
87.70767790708153
 30
0.0
 10
93.88174819073342
 20
87.66771929977097
 30
0.0
 10
93.99834697302384
 20
87.5847227922444
 30
0.0
 10
94.17144129463432
 20
87.46165723835804
 30
0.0
 10
94.3486361161845
 20
87.33575149107119
 30
0.0
 10
94.46536123371789
 20
87.2528734211253
 30
0.0
 10
94.52561180583263
 20
87.21009385363918
 30
0.0
 11
93.82561180578398
 21
87.70767790708153
 31
0.0
 11
93.9940316751944
 21
87.5878171450735
 31
0.0
 11
94.1754845847978
 21
87.45879582491698
 31
0.0
 11
94.34486775690621
 21
87.33844335114298
 31
0.0
 11
94.52561180583263
 21
87.21009385363918
 31
0.0
  0
SPLINE
  5
414
330
1F
100
AcDbEntity
  8
0
  6
Continuous
 62
     7
100
AcDbSpline
210
0.0
220
0.0
230
1.0
 70
     8
 71
     3
 72
    11
 73
     7
 74
     5
 42
0.000000001
 43
0.0000000001
 44
0.00000001
 40
0.0
 40
0.0
 40
0.0
 40
0.0
 40
0.2066671040008221
 40
0.4292755410407549
 40
0.6370209572596365
 40
0.8586410184122223
 40
0.8586410184122223
 40
0.8586410184122223
 40
0.8586410184122223
 10
93.82561180583264
 20
90.81052307783902
 30
0.0
 10
93.88175035850884
 20
90.85045003768977
 30
0.0
 10
93.99835773794439
 20
90.93338372366557
 30
0.0
 10
94.17145647084699
 20
91.05636844905256
 30
0.0
 10
94.34864939352967
 20
91.18219637657256
 30
0.0
 10
94.46536711497129
 20
91.26502650856959
 30
0.0
 10
94.52561180583263
 20
91.30777986725101
 30
0.0
 11
93.82561180583264
 21
90.81052307783902
 31
0.0
 11
93.99403682028145
 21
90.93029079629859
 31
0.0
 11
94.17550069250865
 21
91.05923023681031
 31
0.0
 11
94.34488443207314
 21
91.17951035458647
 31
0.0
 11
94.52561180583263
 21
91.30777986725101
 31
0.0
  0
SPLINE
  5
415
330
1F
100
AcDbEntity
  8
0
  6
Continuous
 62
     7
100
AcDbSpline
210
0.0
220
0.0
230
1.0
 70
     8
 71
     3
 72
    11
 73
     7
 74
     5
 42
0.000000001
 43
0.0000000001
 44
0.00000001
 40
0.0
 40
0.0
 40
0.0
 40
0.0
 40
0.2216200564396587
 40
0.4293654773714674
 40
0.6519739128153124
 40
0.8586410184122306
 40
0.8586410184122306
 40
0.8586410184122306
 40
0.8586410184122306
 10
94.52561180583263
 20
87.562630394393
 30
0.0
 10
94.46536711625241
 20
87.60538375216515
 30
0.0
 10
94.34864939481069
 20
87.68821388416207
 30
0.0
 10
94.17145647256137
 20
87.81404181137351
 30
0.0
 10
93.99835773837809
 20
87.93702653767023
 30
0.0
 10
93.88175035894244
 20
88.01996022364597
 30
0.0
 10
93.82561180583264
 20
88.059887183805
 30
0.0
 11
94.52561180583263
 21
87.562630394393
 31
0.0
 11
94.34488443591613
 21
87.69089990432933
 31
0.0
 11
94.17550069250865
 21
87.8111800248337
 31
0.0
 11
93.99403682158238
 21
87.94011946442072
 31
0.0
 11
93.82561180583264
 21
88.059887183805
 31
0.0
  0
SPLINE
  5
416
330
1F
100
AcDbEntity
  8
0
  6
Continuous
 62
     7
100
AcDbSpline
210
0.0
220
0.0
230
1.0
 70
     8
 71
     3
 72
    11
 73
     7
 74
     5
 42
0.000000001
 43
0.0000000001
 44
0.00000001
 40
0.0
 40
0.0
 40
0.0
 40
0.0
 40
0.2560478877726527
 40
0.496084149339574
 40
0.7532993588516318
 40
0.9921690928339693
 40
0.9921690928339693
 40
0.9921690928339693
 40
0.9921690928339693
 10
94.52561180583263
 20
86.54500831206524
 30
0.0
 10
94.46536658360483
 20
86.60546503714039
 30
0.0
 10
94.34864350726191
 20
86.72259791392621
 30
0.0
 10
94.17145609605154
 20
86.9005184725614
 30
0.0
 10
93.99835331401039
 20
87.07442563395918
 30
0.0
 10
93.88175501676845
 20
87.19168309597335
 30
0.0
 10
93.82561180579467
 20
87.24814371166718
 30
0.0
 11
94.52561180583263
 21
86.54500831206524
 31
0.0
 11
94.34488588651922
 21
86.7263881977226
 31
0.0
 11
94.175503774128
 21
86.89646790512553
 31
0.0
 11
93.99405505006098
 21
87.07877540508348
 31
0.0
 11
93.82561180579467
 21
87.24814371166718
 31
0.0
  0
SPLINE
  5
417
330
1F
100
AcDbEntity
  8
0
  6
Continuous
 62
     7
100
AcDbSpline
210
0.0
220
0.0
230
1.0
 70
     8
 71
     3
 72
    11
 73
     7
 74
     5
 42
0.000000001
 43
0.0000000001
 44
0.00000001
 40
0.0
 40
0.0
 40
0.0
 40
0.0
 40
0.2388697328677641
 40
0.4960849434943853
 40
0.736121206944607
 40
0.9921690928339895
 40
0.9921690928339895
 40
0.9921690928339895
 40
0.9921690928339895
 10
93.82561180579467
 20
91.62226654997683
 30
0.0
 10
93.88175501650646
 20
91.67872716540722
 30
0.0
 10
93.99835331374831
 20
91.79598462742146
 30
0.0
 10
94.1714560962322
 20
91.96989178926437
 30
0.0
 10
94.34864350770495
 20
92.14781234816252
 30
0.0
 10
94.46536658404791
 20
92.26494522494829
 30
0.0
 10
94.52561180583263
 20
92.3254019495788
 30
0.0
 11
93.82561180579467
 21
91.62226654997683
 31
0.0
 11
93.99405504927486
 21
91.79163485577041
 31
0.0
 11
94.17550377412798
 21
91.97394235651849
 31
0.0
 11
94.34488588784833
 21
92.14402206525567
 31
0.0
 11
94.52561180583263
 21
92.3254019495788
 31
0.0
  0
SPLINE
  5
418
330
1F
100
AcDbEntity
  8
0
  6
Continuous
 62
     7
100
AcDbSpline
210
0.0
220
0.0
230
1.0
 70
     8
 71
     3
 72
     9
 73
     5
 74
     3
 42
0.000000001
 43
0.0000000001
 44
0.00000001
 40
0.0
 40
0.0
 40
0.0
 40
0.0
 40
0.3051721720337239
 40
0.6093837263159243
 40
0.6093837263159243
 40
0.6093837263159243
 40
0.6093837263159243
 10
38.24591276989548
 20
142.2794966823824
 30
0.0
 10
38.34533728321743
 20
142.3014120064501
 30
0.0
 10
38.54387334599905
 20
142.3451736501054
 30
0.0
 10
38.74603303019941
 20
142.366687477783
 30
0.0
 10
38.84695353390404
 20
142.3774274248125
 30
0.0
 11
38.24591276989548
 21
142.2794966823824
 31
0.0
 11
38.54509507553418
 21
142.3396631414959
 31
0.0
 11
38.84695353390404
 21
142.3774274248125
 31
0.0
  0
SPLINE
  5
419
330
1F
100
AcDbEntity
  8
0
  6
Continuous
 62
     7
100
AcDbSpline
210
0.0
220
0.0
230
1.0
 70
     8
 71
     3
 72
     9
 73
     5
 74
     3
 42
0.000000001
 43
0.0000000001
 44
0.00000001
 40
0.0
 40
0.0
 40
0.0
 40
0.0
 40
0.1084259445463964
 40
0.2161989950096812
 40
0.2161989950096812
 40
0.2161989950096812
 40
0.2161989950096812
 10
38.04281853390404
 20
142.2054687358342
 30
0.0
 10
38.07644204713481
 20
142.2187432999222
 30
0.0
 10
38.14348661437182
 20
142.2452124756967
 30
0.0
 10
38.21183952159492
 20
142.2680916505046
 30
0.0
 10
38.24591276989548
 20
142.2794966823824
 30
0.0
 11
38.04281853390404
 21
142.2054687358342
 31
0.0
 11
38.14401814069603
 21
142.2443894896071
 31
0.0
 11
38.24591276989548
 21
142.2794966823824
 31
0.0
  0
SPLINE
  5
41A
330
1F
100
AcDbEntity
  8
0
  6
Continuous
 62
     7
100
AcDbSpline
210
0.0
220
0.0
230
1.0
 70
     8
 71
     3
 72
     9
 73
     5
 74
     3
 42
0.000000001
 43
0.0000000001
 44
0.00000001
 40
0.0
 40
0.0
 40
0.0
 40
0.0
 40
0.1912052590812677
 40
0.3802777736713694
 40
0.3802777736713694
 40
0.3802777736713694
 40
0.3802777736713694
 10
37.32667395435297
 20
142.1399424904691
 30
0.0
 10
37.38485677190391
 20
142.1660522975889
 30
0.0
 10
37.50057343098806
 20
142.2179806589606
 30
0.0
 10
37.6205670280897
 20
142.2590681589587
 30
0.0
 10
37.68022734494625
 20
142.2794966823824
 30
0.0
 11
37.32667395435297
 21
142.1399424904691
 31
0.0
 11
37.50230367248889
 21
142.2155312020934
 31
0.0
 11
37.68022734494625
 21
142.2794966823824
 31
0.0
  0
SPLINE
  5
41B
330
1F
100
AcDbEntity
  8
0
  6
Continuous
 62
     7
100
AcDbSpline
210
0.0
220
0.0
230
1.0
 70
     8
 71
     3
 72
     9
 73
     5
 74
     3
 42
0.000000001
 43
0.0000000001
 44
0.00000001
 40
0.0
 40
0.0
 40
0.0
 40
0.0
 40
0.1077730504633075
 40
0.2161989950096738
 40
0.2161989950096738
 40
0.2161989950096738
 40
0.2161989950096738
 10
39.4479942979126
 20
142.2794966823824
 30
0.0
 10
39.48206754621316
 20
142.2680916505046
 30
0.0
 10
39.55042045343625
 20
142.2452124756966
 30
0.0
 10
39.61746502067328
 20
142.2187432999221
 30
0.0
 10
39.65108853390404
 20
142.2054687358342
 30
0.0
 11
39.4479942979126
 21
142.2794966823824
 31
0.0
 11
39.54988892711206
 21
142.244389489607
 31
0.0
 11
39.65108853390404
 21
142.2054687358342
 31
0.0
  0
SPLINE
  5
41C
330
1F
100
AcDbEntity
  8
0
  6
Continuous
 62
     7
100
AcDbSpline
210
0.0
220
0.0
230
1.0
 70
     8
 71
     3
 72
     9
 73
     5
 74
     3
 42
0.000000001
 43
0.0000000001
 44
0.00000001
 40
0.0
 40
0.0
 40
0.0
 40
0.0
 40
0.1902526066967168
 40
0.3762299641297128
 40
0.3762299641297128
 40
0.3762299641297128
 40
0.3762299641297128
 10
37.68022734494625
 20
142.2794966823824
 30
0.0
 10
37.73990125610007
 20
142.3013670645185
 30
0.0
 10
37.85790812567276
 20
142.3446163508006
 30
0.0
 10
37.98165044052894
 20
142.3665735760691
 30
0.0
 10
38.04281853390404
 20
142.3774274248125
 30
0.0
 11
37.68022734494625
 21
142.2794966823824
 31
0.0
 11
37.86071571514125
 21
142.3396631414959
 31
0.0
 11
38.04281853390404
 21
142.3774274248125
 31
0.0
  0
SPLINE
  5
41D
330
1F
100
AcDbEntity
  8
0
  6
Continuous
 62
     7
100
AcDbSpline
210
0.0
220
0.0
230
1.0
 70
     8
 71
     3
 72
     9
 73
     5
 74
     3
 42
0.000000001
 43
0.0000000001
 44
0.00000001
 40
0.0
 40
0.0
 40
0.0
 40
0.0
 40
0.304211554282211
 40
0.6093837263159223
 40
0.6093837263159223
 40
0.6093837263159223
 40
0.6093837263159223
 10
38.84695353390404
 20
142.3774274248125
 30
0.0
 10
38.94787403760866
 20
142.366687477783
 30
0.0
 10
39.15003372180904
 20
142.3451736501054
 30
0.0
 10
39.34856978459066
 20
142.3014120064501
 30
0.0
 10
39.4479942979126
 20
142.2794966823824
 30
0.0
 11
38.84695353390404
 21
142.3774274248125
 31
0.0
 11
39.14881199227391
 21
142.3396631414959
 31
0.0
 11
39.4479942979126
 21
142.2794966823824
 31
0.0
  0
SPLINE
  5
41E
330
1F
100
AcDbEntity
  8
0
  6
Continuous
 62
     7
100
AcDbSpline
210
0.0
220
0.0
230
1.0
 70
     8
 71
     3
 72
     9
 73
     5
 74
     3
 42
0.000000001
 43
0.0000000001
 44
0.00000001
 40
0.0
 40
0.0
 40
0.0
 40
0.0
 40
0.1890725145901017
 40
0.3802777736713563
 40
0.3802777736713563
 40
0.3802777736713563
 40
0.3802777736713563
 10
40.01367972286184
 20
142.2794966823824
 30
0.0
 10
40.0733400397184
 20
142.2590681589587
 30
0.0
 10
40.19333363682001
 20
142.2179806589606
 30
0.0
 10
40.30905029590418
 20
142.1660522975889
 30
0.0
 10
40.36723311345511
 20
142.1399424904691
 30
0.0
 11
40.01367972286184
 21
142.2794966823824
 31
0.0
 11
40.19160339531921
 21
142.2155312020934
 31
0.0
 11
40.36723311345511
 21
142.1399424904691
 31
0.0
  0
SPLINE
  5
41F
330
1F
100
AcDbEntity
  8
0
  6
Continuous
 62
     7
100
AcDbSpline
210
0.0
220
0.0
230
1.0
 70
     8
 71
     3
 72
     9
 73
     5
 74
     3
 42
0.000000001
 43
0.0000000001
 44
0.00000001
 40
0.0
 40
0.0
 40
0.0
 40
0.0
 40
0.1859773574330087
 40
0.3762299641297233
 40
0.3762299641297233
 40
0.3762299641297233
 40
0.3762299641297233
 10
39.65108853390404
 20
142.3774274248125
 30
0.0
 10
39.71225662727914
 20
142.3665735760692
 30
0.0
 10
39.83599894213531
 20
142.3446163508005
 30
0.0
 10
39.95400581170802
 20
142.3013670645185
 30
0.0
 10
40.01367972286184
 20
142.2794966823824
 30
0.0
 11
39.65108853390404
 21
142.3774274248125
 31
0.0
 11
39.83319135266683
 21
142.3396631414959
 31
0.0
 11
40.01367972286184
 21
142.2794966823824
 31
0.0
  0
SPLINE
  5
420
330
1F
100
AcDbEntity
  8
0
  6
Continuous
 62
     7
100
AcDbSpline
210
0.0
220
0.0
230
1.0
 70
     8
 71
     3
 72
     9
 73
     5
 74
     3
 42
0.000000001
 43
0.0000000001
 44
0.00000001
 40
0.0
 40
0.0
 40
0.0
 40
0.0
 40
0.4206786595505805
 40
0.8549809765869778
 40
0.8549809765869778
 40
0.8549809765869778
 40
0.8549809765869778
 10
37.89235937930221
 20
142.1399424904691
 30
0.0
 10
37.76708117597028
 20
142.0762415536372
 30
0.0
 10
37.51246765099083
 20
141.9467767110898
 30
0.0
 10
37.28549772881666
 20
141.773317245017
 30
0.0
 10
37.17020445215212
 20
141.6852055123774
 30
0.0
 11
37.89235937930221
 21
142.1399424904691
 31
0.0
 11
37.5232171864284
 21
141.9381887382044
 31
0.0
 11
37.17020445215212
 21
141.6852055123774
 31
0.0
  0
SPLINE
  5
421
330
1F
100
AcDbEntity
  8
0
  6
Continuous
 62
     7
100
AcDbSpline
210
0.0
220
0.0
230
1.0
 70
     8
 71
     3
 72
     9
 73
     5
 74
     3
 42
0.000000001
 43
0.0000000001
 44
0.00000001
 40
0.0
 40
0.0
 40
0.0
 40
0.0
 40
0.0822728799875444
 40
0.1641224441634974
 40
0.1641224441634974
 40
0.1641224441634974
 40
0.1641224441634974
 10
37.89235937930221
 20
142.1399424904691
 30
0.0
 10
37.91728775987139
 20
142.1513804241558
 30
0.0
 10
37.96701626597515
 20
142.1741974220413
 30
0.0
 10
38.01759459367155
 20
142.1950629099129
 30
0.0
 10
38.04281853390404
 20
142.2054687358342
 30
0.0
 11
37.89235937930221
 21
142.1399424904691
 31
0.0
 11
37.96735807791067
 21
142.1737658848851
 31
0.0
 11
38.04281853390404
 21
142.2054687358342
 31
0.0
  0
SPLINE
  5
422
330
1F
100
AcDbEntity
  8
0
  6
Continuous
 62
     7
100
AcDbSpline
210
0.0
220
0.0
230
1.0
 70
     8
 71
     3
 72
     9
 73
     5
 74
     3
 42
0.000000001
 43
0.0000000001
 44
0.00000001
 40
0.0
 40
0.0
 40
0.0
 40
0.0
 40
0.283243375446674
 40
0.5664867508933693
 40
0.5664867508933693
 40
0.5664867508933693
 40
0.5664867508933693
 10
40.36723311345511
 20
142.1399424904691
 30
0.0
 10
40.27295220947389
 20
142.1474725972875
 30
0.0
 10
40.08439040098051
 20
142.1625327909809
 30
0.0
 10
39.89582859248711
 20
142.1474725972875
 30
0.0
 10
39.80154768850588
 20
142.1399424904691
 30
0.0
 11
40.36723311345511
 21
142.1399424904691
 31
0.0
 11
40.0843904009805
 21
142.1550027041342
 31
0.0
 11
39.80154768850588
 21
142.1399424904691
 31
0.0
  0
SPLINE
  5
423
330
1F
100
AcDbEntity
  8
0
  6
Continuous
 62
     7
100
AcDbSpline
210
0.0
220
0.0
230
1.0
 70
     8
 71
     3
 72
     9
 73
     5
 74
     3
 42
0.000000001
 43
0.0000000001
 44
0.00000001
 40
0.0
 40
0.0
 40
0.0
 40
0.0
 40
0.0818495641759662
 40
0.1641224441635105
 40
0.1641224441635105
 40
0.1641224441635105
 40
0.1641224441635105
 10
39.65108853390404
 20
142.2054687358342
 30
0.0
 10
39.67631247413653
 20
142.1950629099129
 30
0.0
 10
39.72689080183294
 20
142.1741974220413
 30
0.0
 10
39.77661930793671
 20
142.1513804241558
 30
0.0
 10
39.80154768850588
 20
142.1399424904691
 30
0.0
 11
39.65108853390404
 21
142.2054687358342
 31
0.0
 11
39.72654898989742
 21
142.1737658848851
 31
0.0
 11
39.80154768850588
 21
142.1399424904691
 31
0.0
  0
SPLINE
  5
424
330
1F
100
AcDbEntity
  8
0
  6
Continuous
 62
     7
100
AcDbSpline
210
0.0
220
0.0
230
1.0
 70
     8
 71
     3
 72
     9
 73
     5
 74
     3
 42
0.000000001
 43
0.0000000001
 44
0.00000001
 40
0.0
 40
0.0
 40
0.0
 40
0.0
 40
0.4343023170363915
 40
0.854980976586972
 40
0.854980976586972
 40
0.854980976586972
 40
0.854980976586972
 10
36.60451902720288
 20
141.6852055123774
 30
0.0
 10
36.71981230386744
 20
141.773317245017
 30
0.0
 10
36.94678222604157
 20
141.9467767110899
 30
0.0
 10
37.20139575102103
 20
142.0762415536371
 30
0.0
 10
37.32667395435297
 20
142.1399424904691
 30
0.0
 11
36.60451902720288
 21
141.6852055123774
 31
0.0
 11
36.95753176147916
 21
141.9381887382044
 31
0.0
 11
37.32667395435297
 21
142.1399424904691
 31
0.0
  0
SPLINE
  5
425
330
1F
100
AcDbEntity
  8
0
  6
Continuous
 62
     7
100
AcDbSpline
210
0.0
220
0.0
230
1.0
 70
     8
 71
     3
 72
     9
 73
     5
 74
     3
 42
0.000000001
 43
0.0000000001
 44
0.00000001
 40
0.0
 40
0.0
 40
0.0
 40
0.0
 40
0.3051721720337127
 40
0.6093837263159281
 40
0.6093837263159281
 40
0.6093837263159281
 40
0.6093837263159281
 10
40.03109508126249
 20
32.41224418897796
 30
0.0
 10
39.93167056794055
 20
32.39032886491026
 30
0.0
 10
39.73313450515892
 20
32.34656722125499
 30
0.0
 10
39.53097482095853
 20
32.32505339357748
 30
0.0
 10
39.43005431725391
 20
32.31431344654794
 30
0.0
 11
40.03109508126249
 21
32.41224418897796
 31
0.0
 11
39.7319127756238
 21
32.35207772986446
 31
0.0
 11
39.43005431725391
 21
32.31431344654794
 31
0.0
  0
SPLINE
  5
426
330
1F
100
AcDbEntity
  8
0
  6
Continuous
 62
     7
100
AcDbSpline
210
0.0
220
0.0
230
1.0
 70
     8
 71
     3
 72
     9
 73
     5
 74
     3
 42
0.000000001
 43
0.0000000001
 44
0.00000001
 40
0.0
 40
0.0
 40
0.0
 40
0.0
 40
0.0818495641759417
 40
0.1641224441635036
 40
0.1641224441635036
 40
0.1641224441635036
 40
0.1641224441635036
 10
38.6259193172539
 20
32.48627213552621
 30
0.0
 10
38.60069537702142
 20
32.49667796144747
 30
0.0
 10
38.55011704932502
 20
32.51754344931915
 30
0.0
 10
38.50038854322127
 20
32.54036044720461
 30
0.0
 10
38.4754601626521
 20
32.55179838089135
 30
0.0
 11
38.6259193172539
 21
32.48627213552621
 31
0.0
 11
38.55045886126055
 21
32.51797498647527
 31
0.0
 11
38.4754601626521
 21
32.55179838089135
 31
0.0
  0
SPLINE
  5
427
330
1F
100
AcDbEntity
  8
0
  6
Continuous
 62
     7
100
AcDbSpline
210
0.0
220
0.0
230
1.0
 70
     8
 71
     3
 72
     9
 73
     5
 74
     3
 42
0.000000001
 43
0.0000000001
 44
0.00000001
 40
0.0
 40
0.0
 40
0.0
 40
0.0
 40
0.189072514590099
 40
0.3802777736714031
 40
0.3802777736714031
 40
0.3802777736714031
 40
0.3802777736714031
 10
38.26332812829611
 20
32.41224418897796
 30
0.0
 10
38.20366781143957
 20
32.4326727124017
 30
0.0
 10
38.08367421433794
 20
32.47376021239987
 30
0.0
 10
37.96795755525378
 20
32.52568857377152
 30
0.0
 10
37.90977473770283
 20
32.55179838089135
 30
0.0
 11
38.26332812829611
 21
32.41224418897796
 31
0.0
 11
38.08540445583877
 21
32.47620966926696
 31
0.0
 11
37.90977473770283
 21
32.55179838089135
 31
0.0
  0
SPLINE
  5
428
330
1F
100
AcDbEntity
  8
0
  6
Continuous
 62
     7
100
AcDbSpline
210
0.0
220
0.0
230
1.0
 70
     8
 71
     3
 72
     9
 73
     5
 74
     3
 42
0.000000001
 43
0.0000000001
 44
0.00000001
 40
0.0
 40
0.0
 40
0.0
 40
0.0
 40
0.1077730504633168
 40
0.216198995009758
 40
0.216198995009758
 40
0.216198995009758
 40
0.216198995009758
 10
38.8290135532454
 20
32.41224418897794
 30
0.0
 10
38.79494030494485
 20
32.42364922085573
 30
0.0
 10
38.72658739772172
 20
32.44652839566373
 30
0.0
 10
38.65954283048468
 20
32.47299757143824
 30
0.0
 10
38.6259193172539
 20
32.48627213552621
 30
0.0
 11
38.8290135532454
 21
32.41224418897794
 31
0.0
 11
38.72711892404594
 21
32.44735138175331
 31
0.0
 11
38.6259193172539
 21
32.48627213552621
 31
0.0
  0
SPLINE
  5
429
330
1F
100
AcDbEntity
  8
0
  6
Continuous
 62
     7
100
AcDbSpline
210
0.0
220
0.0
230
1.0
 70
     8
 71
     3
 72
     9
 73
     5
 74
     3
 42
0.000000001
 43
0.0000000001
 44
0.00000001
 40
0.0
 40
0.0
 40
0.0
 40
0.0
 40
0.1859773574329595
 40
0.3762299641296898
 40
0.3762299641296898
 40
0.3762299641296898
 40
0.3762299641296898
 10
38.6259193172539
 20
32.31431344654794
 30
0.0
 10
38.56475122387882
 20
32.32516729529129
 30
0.0
 10
38.44100890902264
 20
32.34712452055984
 30
0.0
 10
38.32300203944992
 20
32.39037380684191
 30
0.0
 10
38.26332812829611
 20
32.41224418897796
 30
0.0
 11
38.6259193172539
 21
32.31431344654794
 31
0.0
 11
38.44381649849115
 21
32.35207772986446
 31
0.0
 11
38.26332812829611
 21
32.41224418897796
 31
0.0
  0
SPLINE
  5
42A
330
1F
100
AcDbEntity
  8
0
  6
Continuous
 62
     7
100
AcDbSpline
210
0.0
220
0.0
230
1.0
 70
     8
 71
     3
 72
     9
 73
     5
 74
     3
 42
0.000000001
 43
0.0000000001
 44
0.00000001
 40
0.0
 40
0.0
 40
0.0
 40
0.0
 40
0.3042115542821731
 40
0.6093837263158537
 40
0.6093837263158537
 40
0.6093837263158537
 40
0.6093837263158537
 10
39.43005431725391
 20
32.31431344654794
 30
0.0
 10
39.3291338135493
 20
32.32505339357749
 30
0.0
 10
39.12697412934895
 20
32.346567221255
 30
0.0
 10
38.92843806656735
 20
32.39032886491024
 30
0.0
 10
38.8290135532454
 20
32.41224418897794
 30
0.0
 11
39.43005431725391
 21
32.31431344654794
 31
0.0
 11
39.12819585888407
 21
32.35207772986446
 31
0.0
 11
38.8290135532454
 21
32.41224418897794
 31
0.0
  0
SPLINE
  5
42B
330
1F
100
AcDbEntity
  8
0
  6
Continuous
 62
     7
100
AcDbSpline
210
0.0
220
0.0
230
1.0
 70
     8
 71
     3
 72
     9
 73
     5
 74
     3
 42
0.000000001
 43
0.0000000001
 44
0.00000001
 40
0.0
 40
0.0
 40
0.0
 40
0.0
 40
0.1902526066967033
 40
0.3762299641297185
 40
0.3762299641297185
 40
0.3762299641297185
 40
0.3762299641297185
 10
40.59678050621173
 20
32.41224418897796
 30
0.0
 10
40.53710659505792
 20
32.39037380684191
 30
0.0
 10
40.41909972548519
 20
32.34712452055983
 30
0.0
 10
40.29535741062902
 20
32.32516729529129
 30
0.0
 10
40.23418931725391
 20
32.31431344654794
 30
0.0
 11
40.59678050621173
 21
32.41224418897796
 31
0.0
 11
40.41629213601672
 21
32.35207772986446
 31
0.0
 11
40.23418931725391
 21
32.31431344654794
 31
0.0
  0
SPLINE
  5
42C
330
1F
100
AcDbEntity
  8
0
  6
Continuous
 62
     7
100
AcDbSpline
210
0.0
220
0.0
230
1.0
 70
     8
 71
     3
 72
     9
 73
     5
 74
     3
 42
0.000000001
 43
0.0000000001
 44
0.00000001
 40
0.0
 40
0.0
 40
0.0
 40
0.0
 40
0.0822728799875849
 40
0.1641224441635472
 40
0.1641224441635472
 40
0.1641224441635472
 40
0.1641224441635472
 10
40.38464847185577
 20
32.55179838089134
 30
0.0
 10
40.35972009128658
 20
32.54036044720461
 30
0.0
 10
40.30999158518283
 20
32.51754344931915
 30
0.0
 10
40.25941325748639
 20
32.49667796144749
 30
0.0
 10
40.23418931725391
 20
32.48627213552622
 30
0.0
 11
40.38464847185577
 21
32.55179838089134
 31
0.0
 11
40.30964977324729
 21
32.51797498647527
 31
0.0
 11
40.23418931725391
 21
32.48627213552622
 31
0.0
  0
SPLINE
  5
42D
330
1F
100
AcDbEntity
  8
0
  6
Continuous
 62
     7
100
AcDbSpline
210
0.0
220
0.0
230
1.0
 70
     8
 71
     3
 72
     9
 73
     5
 74
     3
 42
0.000000001
 43
0.0000000001
 44
0.00000001
 40
0.0
 40
0.0
 40
0.0
 40
0.0
 40
0.1912052590812716
 40
0.3802777736714106
 40
0.3802777736714106
 40
0.3802777736714106
 40
0.3802777736714106
 10
40.95033389680501
 20
32.55179838089135
 30
0.0
 10
40.89215107925409
 20
32.52568857377151
 30
0.0
 10
40.77643442016992
 20
32.47376021239986
 30
0.0
 10
40.65644082306829
 20
32.4326727124017
 30
0.0
 10
40.59678050621173
 20
32.41224418897796
 30
0.0
 11
40.95033389680501
 21
32.55179838089135
 31
0.0
 11
40.77470417866911
 21
32.47620966926696
 31
0.0
 11
40.59678050621173
 21
32.41224418897796
 31
0.0
  0
SPLINE
  5
42E
330
1F
100
AcDbEntity
  8
0
  6
Continuous
 62
     7
100
AcDbSpline
210
0.0
220
0.0
230
1.0
 70
     8
 71
     3
 72
     9
 73
     5
 74
     3
 42
0.000000001
 43
0.0000000001
 44
0.00000001
 40
0.0
 40
0.0
 40
0.0
 40
0.0
 40
0.1084259445463749
 40
0.216198995009676
 40
0.216198995009676
 40
0.216198995009676
 40
0.216198995009676
 10
40.23418931725391
 20
32.48627213552622
 30
0.0
 10
40.20056580402314
 20
32.47299757143826
 30
0.0
 10
40.13352123678615
 20
32.44652839566375
 30
0.0
 10
40.06516832956305
 20
32.42364922085574
 30
0.0
 10
40.03109508126249
 20
32.41224418897796
 30
0.0
 11
40.23418931725391
 21
32.48627213552622
 31
0.0
 11
40.13298971046194
 21
32.44735138175332
 31
0.0
 11
40.03109508126249
 21
32.41224418897796
 31
0.0
  0
SPLINE
  5
42F
330
1F
100
AcDbEntity
  8
0
  6
Continuous
 62
     7
100
AcDbSpline
210
0.0
220
0.0
230
1.0
 70
     8
 71
     3
 72
     9
 73
     5
 74
     3
 42
0.000000001
 43
0.0000000001
 44
0.00000001
 40
0.0
 40
0.0
 40
0.0
 40
0.0
 40
0.2832433754467073
 40
0.5664867508934146
 40
0.5664867508934146
 40
0.5664867508934146
 40
0.5664867508934146
 10
37.90977473770283
 20
32.55179838089135
 30
0.0
 10
38.00405564168406
 20
32.5442682740729
 30
0.0
 10
38.19261745017747
 20
32.52920808037945
 30
0.0
 10
38.38117925867088
 20
32.5442682740729
 30
0.0
 10
38.4754601626521
 20
32.55179838089135
 30
0.0
 11
37.90977473770283
 21
32.55179838089135
 31
0.0
 11
38.19261745017747
 21
32.53673816722617
 31
0.0
 11
38.4754601626521
 21
32.55179838089135
 31
0.0
  0
SPLINE
  5
430
330
1F
100
AcDbEntity
  8
0
  6
Continuous
 62
     7
100
AcDbSpline
210
0.0
220
0.0
230
1.0
 70
     8
 71
     3
 72
     9
 73
     5
 74
     3
 42
0.000000001
 43
0.0000000001
 44
0.00000001
 40
0.0
 40
0.0
 40
0.0
 40
0.0
 40
0.4343023170363708
 40
0.8549809765869179
 40
0.8549809765869179
 40
0.8549809765869179
 40
0.8549809765869179
 10
41.67248882395509
 20
33.00653535898297
 30
0.0
 10
41.55719554729056
 20
32.91842362634343
 30
0.0
 10
41.33022562511639
 20
32.74496416027056
 30
0.0
 10
41.07561210013694
 20
32.61549931772326
 30
0.0
 10
40.95033389680501
 20
32.55179838089135
 30
0.0
 11
41.67248882395509
 21
33.00653535898297
 31
0.0
 11
41.31947608967882
 21
32.75355213315602
 31
0.0
 11
40.95033389680501
 21
32.55179838089135
 31
0.0
  0
SPLINE
  5
431
330
1F
100
AcDbEntity
  8
0
  6
Continuous
 62
     7
100
AcDbSpline
210
0.0
220
0.0
230
1.0
 70
     8
 71
     3
 72
     9
 73
     5
 74
     3
 42
0.000000001
 43
0.0000000001
 44
0.00000001
 40
0.0
 40
0.0
 40
0.0
 40
0.0
 40
0.4206786595505566
 40
0.8549809765869333
 40
0.8549809765869333
 40
0.8549809765869333
 40
0.8549809765869333
 10
40.38464847185577
 20
32.55179838089134
 30
0.0
 10
40.50992667518771
 20
32.61549931772326
 30
0.0
 10
40.76454020016716
 20
32.74496416027056
 30
0.0
 10
40.99151012234132
 20
32.91842362634343
 30
0.0
 10
41.10680339900586
 20
33.00653535898297
 30
0.0
 11
40.38464847185577
 21
32.55179838089134
 31
0.0
 11
40.75379066472958
 21
32.75355213315602
 31
0.0
 11
41.10680339900586
 21
33.00653535898297
 31
0.0
  0
SPLINE
  5
432
330
1F
100
AcDbEntity
  8
0
  6
Continuous
 62
     7
100
AcDbSpline
210
0.0
220
0.0
230
1.0
 70
     8
 71
     3
 72
    11
 73
     7
 74
     5
 42
0.000000001
 43
0.0000000001
 44
0.00000001
 40
0.0
 40
0.0
 40
0.0
 40
0.0
 40
0.2561079273713526
 40
0.4961970519622991
 40
0.7534970514499353
 40
0.9923954452692945
 40
0.9923954452692945
 40
0.9923954452692945
 40
0.9923954452692945
 10
42.31925835989267
 20
33.37787742627257
 30
0.0
 10
42.25877674472144
 20
33.43812602194047
 30
0.0
 10
42.14159645236194
 20
33.55485482917533
 30
0.0
 10
41.96359204567507
 20
33.73205142448793
 30
0.0
 10
41.78960481571683
 20
33.90515234179385
 30
0.0
 10
41.67228710377268
 20
34.02174367167824
 30
0.0
 10
41.61580361669337
 20
34.07787742627257
 30
0.0
 11
42.31925835989267
 21
33.37787742627257
 31
0.0
 11
42.13780281320685
 21
33.55861246725607
 31
0.0
 11
41.96765029774298
 21
33.72799637803172
 31
0.0
 11
41.78523915724203
 21
33.90946115577066
 31
0.0
 11
41.61580361669337
 21
34.07787742627257
 31
0.0
  0
SPLINE
  5
433
330
1F
100
AcDbEntity
  8
0
  6
Continuous
 62
     7
100
AcDbSpline
210
0.0
220
0.0
230
1.0
 70
     8
 71
     3
 72
    11
 73
     7
 74
     5
 42
0.000000001
 43
0.0000000001
 44
0.00000001
 40
0.0
 40
0.0
 40
0.0
 40
0.0
 40
0.2216799554811626
 40
0.4294668147282618
 40
0.6521137537737397
 40
0.858830600380388
 40
0.858830600380388
 40
0.858830600380388
 40
0.858830600380388
 10
41.6551655944368
 20
33.37787742627257
 30
0.0
 10
41.61238602785164
 20
33.43812799711854
 30
0.0
 10
41.52950795790584
 20
33.55485311465203
 30
0.0
 10
41.40360221061534
 20
33.73204793620872
 30
0.0
 10
41.28053665582722
 20
33.90514225908741
 30
0.0
 10
41.19754014830069
 20
34.02174104137782
 30
0.0
 10
41.15758154099441
 20
34.07787742632119
 30
0.0
 11
41.6551655944368
 21
33.37787742627257
 31
0.0
 11
41.52681609963638
 21
33.55862147139307
 31
0.0
 11
41.40646362315897
 21
33.72800464730742
 31
0.0
 11
41.27744230298952
 21
33.90945755692894
 31
0.0
 11
41.15758154099441
 21
34.07787742632119
 31
0.0
  0
SPLINE
  5
434
330
1F
100
AcDbEntity
  8
0
  6
Continuous
 62
     7
100
AcDbSpline
210
0.0
220
0.0
230
1.0
 70
     8
 71
     3
 72
    11
 73
     7
 74
     5
 42
0.000000001
 43
0.0000000001
 44
0.00000001
 40
0.0
 40
0.0
 40
0.0
 40
0.0
 40
0.222055697059511
 40
0.4295551918090895
 40
0.6526894176747623
 40
0.8589902338103705
 40
0.8589902338103705
 40
0.8589902338103705
 40
0.8589902338103705
 10
41.56900633921447
 20
33.37787742627257
 30
0.0
 10
41.52614354580019
 20
33.43822250993742
 30
0.0
 10
41.44322769022286
 20
33.55495692585728
 30
0.0
 10
41.3171702403661
 20
33.73227934493032
 30
0.0
 10
41.19409924264211
 20
33.9052814055968
 30
0.0
 10
41.11104578004977
 20
34.02186879057603
 30
0.0
 10
41.07114684767402
 20
34.07787742629272
 30
0.0
 11
41.56900633921447
 21
33.37787742627257
 31
0.0
 11
41.44040553650346
 21
33.55890385014076
 31
0.0
 11
41.32018101974711
 21
33.72802542148382
 31
0.0
 11
41.1908260242359
 21
33.90983897403536
 31
0.0
 11
41.07114684767402
 21
34.07787742629272
 31
0.0
  0
SPLINE
  5
435
330
1F
100
AcDbEntity
  8
0
  6
Continuous
 62
     7
100
AcDbSpline
210
0.0
220
0.0
230
1.0
 70
     8
 71
     3
 72
    11
 73
     7
 74
     5
 42
0.000000001
 43
0.0000000001
 44
0.00000001
 40
0.0
 40
0.0
 40
0.0
 40
0.0
 40
0.2062586927150718
 40
0.4293378893418297
 40
0.636790610256267
 40
0.8587804029413437
 40
0.8587804029413437
 40
0.8587804029413437
 40
0.8587804029413437
 10
37.7992895870544
 20
34.07787742627257
 30
0.0
 10
37.75942340527208
 20
34.02186270818602
 30
0.0
 10
37.6764399463346
 20
33.90526523363503
 30
0.0
 10
37.55345845495336
 20
33.73225839616266
 30
0.0
 10
37.4274893545112
 20
33.55494177298578
 30
0.0
 10
37.34462623661185
 20
33.43821597431322
 30
0.0
 10
37.30179218287839
 20
33.37787742627257
 30
0.0
 11
37.7992895870544
 21
34.07787742627257
 31
0.0
 11
37.67970643946606
 21
33.90982231883878
 31
0.0
 11
37.55044949581207
 21
33.72800655910656
 31
0.0
 11
37.43030520176773
 21
33.55888535988921
 31
0.0
 11
37.30179218287839
 21
33.37787742627257
 31
0.0
  0
SPLINE
  5
436
330
1F
100
AcDbEntity
  8
0
  6
Continuous
 62
     7
100
AcDbSpline
210
0.0
220
0.0
230
1.0
 70
     8
 71
     3
 72
    11
 73
     7
 74
     5
 42
0.000000001
 43
0.0000000001
 44
0.00000001
 40
0.0
 40
0.0
 40
0.0
 40
0.0
 40
0.2066659461883577
 40
0.4292755410402509
 40
0.637019627468318
 40
0.8586410184122313
 40
0.8586410184122313
 40
0.8586410184122313
 40
0.8586410184122313
 10
37.71293447734382
 20
34.07787742627257
 30
0.0
 10
37.67300774114469
 20
34.02173918812415
 30
0.0
 10
37.59007405510359
 20
33.90513180873521
 30
0.0
 10
37.46708958631469
 20
33.73203343727451
 30
0.0
 10
37.34126143519728
 20
33.55484020002544
 30
0.0
 10
37.25843130316517
 20
33.43812247860849
 30
0.0
 10
37.21567768793184
 20
33.37787742627257
 30
0.0
 11
37.71293447734382
 21
34.07787742627257
 31
0.0
 11
37.59316742968571
 21
33.90945335551606
 31
0.0
 11
37.46422731837347
 21
33.72798853959652
 31
0.0
 11
37.34394797038149
 21
33.55860588436406
 31
0.0
 11
37.21567768793184
 21
33.37787742627257
 31
0.0
  0
SPLINE
  5
437
330
1F
100
AcDbEntity
  8
0
  6
Continuous
 62
     7
100
AcDbSpline
210
0.0
220
0.0
230
1.0
 70
     8
 71
     3
 72
    11
 73
     7
 74
     5
 42
0.000000001
 43
0.0000000001
 44
0.00000001
 40
0.0
 40
0.0
 40
0.0
 40
0.0
 40
0.2067272108007016
 40
0.4293637856432609
 40
0.637151473048899
 40
0.8588306003711181
 40
0.8588306003711181
 40
0.8588306003711181
 40
0.8588306003711181
 10
38.06783198179102
 20
34.07787742632119
 30
0.0
 10
38.02787137142546
 20
34.02173822660897
 30
0.0
 10
37.94487486463029
 20
33.90513944380134
 30
0.0
 10
37.82180915120297
 20
33.73204489500372
 30
0.0
 10
37.69590540503353
 20
33.5548528895976
 30
0.0
 10
37.61302733511726
 20
33.43812777204335
 30
0.0
 10
37.57024792836455
 20
33.37787742627257
 30
0.0
 11
38.06783198179102
 21
34.07787742632119
 31
0.0
 11
37.94796521216476
 21
33.90944911152241
 31
0.0
 11
37.81894989964169
 21
33.72800464730742
 31
0.0
 11
37.69859694358247
 21
33.558620796228
 31
0.0
 11
37.57024792836455
 21
33.37787742627257
 31
0.0
  0
SPLINE
  5
438
330
1F
100
AcDbEntity
  8
0
  6
Continuous
 62
     7
100
AcDbSpline
210
0.0
220
0.0
230
1.0
 70
     8
 71
     3
 72
    11
 73
     7
 74
     5
 42
0.000000001
 43
0.0000000001
 44
0.00000001
 40
0.0
 40
0.0
 40
0.0
 40
0.0
 40
0.2388983934703954
 40
0.4961983933069953
 40
0.7362875172468016
 40
0.9923954452692794
 40
0.9923954452692794
 40
0.9923954452692794
 40
0.9923954452692794
 10
37.2443050178145
 20
34.07787742627257
 30
0.0
 10
37.18782153081766
 20
34.02174367176026
 30
0.0
 10
37.07050381887352
 20
33.90515234187588
 30
0.0
 10
36.8965165890691
 20
33.73205142472307
 30
0.0
 10
36.71851218229973
 20
33.55485482932847
 30
0.0
 10
36.60133188994022
 20
33.43812602209365
 30
0.0
 10
36.54085027461522
 20
33.37787742627257
 30
0.0
 11
37.2443050178145
 21
34.07787742627257
 31
0.0
 11
37.07486947751327
 21
33.90946115601673
 31
0.0
 11
36.89245833676489
 21
33.72799637803172
 31
0.0
 11
36.72230582176242
 21
33.55861246771551
 31
0.0
 11
36.54085027461522
 21
33.37787742627257
 31
0.0
  0
SPLINE
  5
439
330
1F
100
AcDbEntity
  8
0
  6
Continuous
 62
     7
100
AcDbSpline
210
0.0
220
0.0
230
1.0
 70
     8
 71
     3
 72
    11
 73
     7
 74
     5
 42
0.000000001
 43
0.0000000001
 44
0.00000001
 40
0.0
 40
0.0
 40
0.0
 40
0.0
 40
0.2216200606332884
 40
0.4293654773714525
 40
0.6519739134840349
 40
0.8586410184122422
 40
0.8586410184122422
 40
0.8586410184122422
 40
0.8586410184122422
 10
41.30262905368295
 20
33.37787742627257
 30
0.0
 10
41.25987569510171
 20
33.43812211699272
 30
0.0
 10
41.17704556310473
 20
33.55483983843436
 30
0.0
 10
41.05121763576367
 20
33.73203276086506
 30
0.0
 10
40.92823291027659
 20
33.90513149390881
 30
0.0
 10
40.84529922430081
 20
34.02173887334444
 30
0.0
 10
40.80537226427094
 20
34.07787742627257
 30
0.0
 11
41.30262905368295
 21
33.37787742627257
 31
0.0
 11
41.17435954131901
 21
33.55860479960861
 31
0.0
 11
41.05407942324223
 21
33.72798853959652
 31
0.0
 11
40.9251399832678
 21
33.90945241106787
 31
0.0
 11
40.80537226427094
 21
34.07787742627257
 31
0.0
  0
ARC
  5
43A
102
{ACAD_REACTORS
330
472
102
}
330
1F
100
AcDbEntity
  8
1
  6
Continuous
 62
     7
100
AcDbCircle
 10
97.1714836777047
 20
5.03874991991631
 30
0.0
 40
0.1666666666666003
100
AcDbArc
 50
180.0
 51
299.981639368863
  0
ARC
  5
43B
102
{ACAD_REACTORS
330
472
102
}
330
1F
100
AcDbEntity
  8
1
  6
Continuous
 62
     7
100
AcDbCircle
 10
97.1714836777047
 20
7.46125008008369
 30
0.0
 40
0.1666666666667083
100
AcDbArc
 50
60.01836063113698
 51
180.0
  0
ARC
  5
43C
330
1F
100
AcDbEntity
  8
1
  6
Continuous
 62
     7
100
AcDbCircle
 10
100.0047244441514
 20
6.25
 30
0.0
 40
0.0833333333333364
100
AcDbArc
 50
299.9816393688419
 51
60.01836063113769
  0
ARC
  5
43D
330
1F
100
AcDbEntity
  8
1
  6
Continuous
 62
     7
100
AcDbCircle
 10
91.67157624459145
 20
6.25
 30
0.0
 40
0.0833333333333132
100
AcDbArc
 50
119.9816393688962
 51
240.0183606311243
  0
ARC
  5
43E
102
{ACAD_REACTORS
330
474
102
}
330
1F
100
AcDbEntity
  8
1
  6
Continuous
 62
     7
100
AcDbCircle
 10
94.6714836777047
 20
5.13501057401635
 30
0.0
 40
0.3333333333333002
100
AcDbArc
 50
180.0000000000104
 51
240.0183606311601
  0
ARC
  5
43F
102
{ACAD_REACTORS
330
475
102
}
330
1F
100
AcDbEntity
  8
1
  6
Continuous
 62
     7
100
AcDbCircle
 10
95.8381503443714
 20
6.41666666666663
 30
0.0
 40
0.0833333333333545
100
AcDbArc
 50
209.9999999999622
 51
330.0000000000231
  0
MTEXT
  5
441
330
1F
100
AcDbEntity
  8
1
 62
     7
100
AcDbMText
 10
84.8381503443714
 20
8.13031971037799
 30
0.0
 40
1.5
 41
0.0
 71
     5
 72
     1
  1
Scale
  7
CONVERTER_11
 73
     1
 44
1.32052821128451
  0
MTEXT
  5
442
330
1F
100
AcDbEntity
  8
1
 62
     7
100
AcDbMText
 10
11.00000000000006
 20
3.74999999999994
 30
0.0
 40
1.5
 41
0.0
 71
     4
 72
     1
  1
Sign.
  7
CONVERTER_11
 73
     1
 44
1.32052821128451
  0
MTEXT
  5
443
330
1F
100
AcDbEntity
  8
1
 62
     7
100
AcDbMText
 10
11.00000000000006
 20
6.24999999999994
 30
0.0
 40
1.5
 41
0.0
 71
     4
 72
     1
  1
Date
  7
CONVERTER_11
 73
     1
 44
1.32052821128451
  0
MTEXT
  5
444
330
1F
100
AcDbEntity
  8
1
 62
     7
100
AcDbMText
 10
8.0
 20
75.7499999999999
 30
0.0
 40
2.0
 41
0.0
 71
     5
 72
     1
  1
Diritti riservati      All rights reserved
  7
CONVERTER_11
 11
0.0
 21
1.0
 31
0.0
 73
     1
 44
1.32052821128451
  0
MTEXT
  5
446
330
1F
100
AcDbEntity
  8
1
 62
     7
100
AcDbMText
 10
18.00000000000005
 20
8.74999999999997
 30
0.0
 40
1.25
 41
0.0
 71
     5
 72
     1
  1
dimensions in mm
  7
CONVERTER_12
 73
     1
 44
0.60024009603842
  0
MTEXT
  5
447
330
1F
100
AcDbEntity
  8
1
 62
     7
100
AcDbMText
 10
28.63815034437141
 20
6.25
 30
0.0
 40
2.25
 41
0.0
 71
     4
 72
     1
  1
JKSM 03\PMale insert spring 3P +         10A 400V - JEI
  7
CONVERTER_11
 73
     1
 44
0.90036014405762
  0
MTEXT
  5
448
330
1F
100
AcDbEntity
  8
1
 62
     7
100
AcDbMText
 10
16.30000000000005
 20
6.24999999999994
 30
0.0
 40
1.5
 41
0.0
 71
     4
 72
     1
  1
08/10/14
  7
CONVERTER_11
 73
     1
 44
1.32052821128451
  0
MTEXT
  5
449
330
1F
100
AcDbEntity
  8
1
 62
     7
100
AcDbMText
 10
16.30000000000005
 20
3.74999999999994
 30
0.0
 40
1.5
 41
0.0
 71
     4
 72
     1
  1
M.Pezzimenti
  7
CONVERTER_11
 73
     1
 44
1.32052821128451
  0
MTEXT
  5
44A
330
1F
100
AcDbEntity
  8
1
 62
     7
100
AcDbMText
 10
84.8381503443714
 20
5.03031971037803
 30
0.0
 40
2.25
 41
0.0
 71
     5
 72
     1
  1
2:1
  7
CONVERTER_11
 73
     1
 44
1.32052821128451
  0
MTEXT
  5
44C
330
1F
100
AcDbEntity
  8
1
 62
     4
100
AcDbMText
 10
37.21282393440012
 20
12.5
 30
0.0
 40
1.75
 41
0.0
 71
     2
 72
     1
  1
 
  7
CONVERTER_13
 73
     1
 44
1.32052821128451
  0
MTEXT
  5
44D
330
1F
100
AcDbEntity
  8
1
 62
     7
100
AcDbMText
 10
83.2180644070537
 20
67.43520512930131
 30
0.0
 40
1.75
 41
0.0
 71
     2
 72
     1
  1
 
  7
CONVERTER_13
 73
     1
 44
1.32052821128451
  0
MTEXT
  5
44E
330
1F
100
AcDbEntity
  8
1
 62
     7
100
AcDbMText
 10
38.84695348852597
 20
67.43520512930131
 30
0.0
 40
1.75
 41
0.0
 71
     2
 72
     1
  1
 
  7
CONVERTER_13
 73
     1
 44
1.32052821128451
  0
MTEXT
  5
44F
330
1F
100
AcDbEntity
  8
1
 62
     7
100
AcDbMText
 10
38.84695348852597
 20
112.6352051301714
 30
0.0
 40
1.75
 41
0.0
 71
     2
 72
     1
  1
 
  7
CONVERTER_13
 73
     1
 44
1.32052821128451
  0
MTEXT
  5
450
330
1F
100
AcDbEntity
  8
1
 62
     7
100
AcDbMText
 10
39.43005427187586
 20
27.31431390891367
 30
0.0
 40
1.75
 41
0.0
 71
     2
 72
     1
  1
 
  7
CONVERTER_13
 73
     1
 44
1.32052821128451
  0
DIMENSION
  5
45B
330
1F
100
AcDbEntity
  8
1
100
AcDbDimension
  2
*D2
 10
28.34695353390405
 20
110.8852051301714
 30
0.0
 11
38.84695353390406
 21
112.6352051301714
 31
0.0
 70
    32
  1
<>
 71
     5
 42
-1.0
 53
0.00013888888889
  3
ME10_DIM_10
100
AcDbAlignedDimension
 13
49.34695353390407
 23
103.935205130822
 33
0.0
 14
28.34695353390404
 24
103.935205130822
 34
0.0
100
AcDbRotatedDimension
  0
DIMENSION
  5
466
330
1F
100
AcDbEntity
  8
1
100
AcDbDimension
  2
*D3
 10
72.3469538731222
 20
110.8852051301714
 30
0.0
 11
82.84695387312219
 21
112.6352051301714
 31
0.0
 70
    32
  1
<>
 71
     5
 42
-1.0
 53
0.00013888888889
  3
ME10_DIM_11
100
AcDbAlignedDimension
 13
93.34695387312217
 23
103.935205130822
 33
0.0
 14
72.3469538731222
 24
103.935205130822
 34
0.0
100
AcDbRotatedDimension
  0
DIMENSION
  5
471
330
1F
100
AcDbEntity
  8
1
100
AcDbDimension
  2
*D4
 10
20.5276019670328
 20
103.935205130822
 30
0.0
 11
18.7026019670328
 21
88.18520513082201
 31
0.0
 70
    32
  1
<>
 71
     5
 42
-1.0
 53
90.0
  3
ME10_DIM_12
100
AcDbAlignedDimension
 13
28.34695353390407
 23
72.43520513082201
 33
0.0
 14
28.34695353390404
 24
103.935205130822
 34
0.0
 50
90.0
100
AcDbRotatedDimension
  0
HATCH
  5
472
330
1F
100
AcDbEntity
  8
1
  6
Continuous
 62
     7
100
AcDbHatch
 10
0.0
 20
0.0
 30
0.0
210
0.0
220
0.0
230
1.0
  2
SOLID
 70
     1
 71
     1
 91
        1
 92
        1
 93
       14
 72
     1
 10
97.7548632687898
 20
6.93227043112688
 11
97.3381503443714
 21
7.17268173367597
 72
     1
 10
97.3381503443714
 20
7.17268173367597
 11
97.3381503443714
 21
6.41666666666663
 72
     1
 10
97.3381503443714
 20
6.41666666666663
 11
97.8381503443714
 21
6.41666666666663
 72
     2
 10
97.8381503443714
 20
6.25
 40
0.1666666666666847
 50
270.0
 51
450.0
 73
     0
 72
     1
 10
97.8381503443714
 20
6.083333333333315
 11
97.3381503443714
 21
6.083333333333315
 72
     1
 10
97.3381503443714
 20
6.083333333333315
 11
97.3381503443714
 21
5.32731826632397
 72
     1
 10
97.3381503443714
 20
5.32731826632397
 11
97.7548632687898
 21
5.56772956887312
 72
     2
 10
97.8381503443714
 20
5.423365304531615
 40
0.1666666666666586
 50
240.0183606311635
 51
420.0183606311665
 73
     0
 72
     1
 10
97.92143741995295
 20
5.279001040190165
 11
97.25477075328635
 21
4.894385655574865
 72
     2
 10
97.1714836777047
 20
5.038749919916315
 40
0.1666666666666003
 50
60.01836063113696
 51
180.0
 73
     0
 72
     1
 10
97.0048170110381
 20
5.038749919916315
 11
97.0048170110381
 21
7.461250080083685
 72
     2
 10
97.1714836777047
 20
7.461250080083685
 40
0.1666666666667083
 50
180.0
 51
299.981639368863
 73
     0
 72
     1
 10
97.25477075328635
 20
7.605614344425135
 11
97.92143741995295
 21
7.22099895980972
 72
     2
 10
97.8381503443714
 20
7.07663469546833
 40
0.1666666666666806
 50
299.9816393688436
 51
479.9816393688459
 73
     0
 97
       14
330
61
330
43B
330
78
330
43A
330
5A
330
39C
330
5B
330
5C
330
5D
330
39D
330
5E
330
5F
330
60
330
39E
 75
     0
 76
     1
 98
        1
 10
0.0
 20
0.0
  0
HATCH
  5
473
330
1F
100
AcDbEntity
  8
1
  6
Continuous
 62
     7
100
AcDbHatch
 10
0.0
 20
0.0
 30
0.0
210
0.0
220
0.0
230
1.0
  2
SOLID
 70
     1
 71
     1
 91
        1
 92
        1
 93
        5
 72
     1
 10
94.00481701103806
 20
7.07663469546833
 11
94.00481701103806
 21
5.51962595863165
 72
     1
 10
94.00481701103806
 20
5.51962595863165
 11
94.00481701103806
 21
5.423365304531615
 72
     2
 10
93.8381503443714
 20
5.423365304531615
 40
0.1666666666666998
 50
0.0
 51
180.0
 73
     0
 72
     1
 10
93.6714836777047
 20
5.423365304531615
 11
93.6714836777047
 21
7.07663469546833
 72
     2
 10
93.8381503443714
 20
7.07663469546833
 40
0.1666666666666572
 50
180.0
 51
360.0
 73
     0
 97
        5
330
64
330
63
330
39F
330
62
330
3A0
 75
     0
 76
     1
 98
        1
 10
0.0
 20
0.0
  0
HATCH
  5
474
330
1F
100
AcDbEntity
  8
1
  6
Continuous
 62
     7
100
AcDbHatch
 10
0.0
 20
0.0
 30
0.0
210
0.0
220
0.0
230
1.0
  2
SOLID
 70
     1
 71
     1
 91
        1
 92
        1
 93
        7
 72
     1
 10
94.6714836777047
 20
7.461250080083685
 11
94.6714836777047
 21
5.13501057401635
 72
     1
 10
94.6714836777047
 20
5.13501057401635
 11
95.75477075328635
 21
4.510037261180798
 72
     2
 10
95.6714836777047
 20
4.365672996839351
 40
0.1666666666666783
 50
299.9816393688633
 51
479.9816393688463
 73
     0
 72
     1
 10
95.5881966021231
 20
4.221308732497903
 11
94.50490952654155
 21
4.846282045333453
 72
     2
 10
94.6714836777047
 20
5.13501057401635
 40
0.3333333333333002
 50
119.9816393688399
 51
179.9999999999896
 73
     0
 72
     1
 10
94.3381503443714
 20
5.13501057401629
 11
94.3381503443714
 21
7.461250080083685
 72
     2
 10
94.50481701103806
 20
7.461250080083685
 40
0.166666666666643
 50
180.0
 51
360.0
 73
     0
 97
        7
330
67
330
66
330
3A1
330
65
330
43E
330
68
330
3A2
 75
     0
 76
     1
 98
        1
 10
0.0
 20
0.0
  0
HATCH
  5
475
330
1F
100
AcDbEntity
  8
1
  6
Continuous
 62
     7
100
AcDbHatch
 10
0.0
 20
0.0
 30
0.0
210
0.0
220
0.0
230
1.0
  2
SOLID
 70
     1
 71
     1
 91
        1
 92
        1
 93
       16
 72
     2
 10
95.1373001172757
 20
7.865608656017285
 40
0.1324831062376427
 50
30.00000000001921
 51
180.0
 73
     1
 72
     1
 10
95.00481701103806
 20
7.865608656017285
 11
95.00481701103806
 21
6.25
 72
     1
 10
95.00481701103806
 20
6.25
 11
95.00481701103806
 21
5.423792536316455
 72
     2
 10
95.1714836777047
 20
5.423792536316455
 40
0.166666666666643
 50
180.0
 51
360.0
 73
     1
 72
     1
 10
95.3381503443714
 20
5.423792536316455
 11
95.3381503443714
 21
6.25
 72
     1
 10
95.3381503443714
 20
6.25
 11
95.3381503443714
 21
7.11602540378442
 72
     1
 10
95.3381503443714
 20
7.11602540378442
 11
95.76598156072265
 21
6.375
 72
     2
 10
95.8381503443714
 20
6.41666666666663
 40
0.0833333333333545
 50
209.9999999999622
 51
330.0000000000231
 73
     1
 72
     1
 10
95.9103191280201
 20
6.375
 11
96.3381503443714
 21
7.11602540378442
 72
     1
 10
96.3381503443714
 20
7.11602540378442
 11
96.3381503443714
 21
6.25
 72
     1
 10
96.3381503443714
 20
6.25
 11
96.3381503443714
 21
4.654134535300898
 72
     2
 10
96.5048170110381
 20
4.654134535300898
 40
0.1666666666666998
 50
180.0
 51
360.0
 73
     1
 72
     1
 10
96.6714836777047
 20
4.654134535300898
 11
96.6714836777047
 21
7.865608656017285
 72
     2
 10
96.53900057146706
 20
7.865608656017285
 40
0.1324831062376433
 50
0.0
 51
149.9999999999716
 73
     1
 72
     1
 10
96.42426683589305
 20
7.931850209136145
 11
95.8381503443714
 21
6.91666666666663
 72
     1
 10
95.8381503443714
 20
6.91666666666663
 11
95.25203385284975
 21
7.931850209136145
 97
       16
330
69
330
3A3
330
6A
330
3A4
330
6B
330
77
330
76
330
43F
330
75
330
74
330
6C
330
3A5
330
6D
330
6F
330
3A6
330
6E
 75
     0
 76
     1
 98
        1
 10
0.0
 20
0.0
  0
ENDSEC
  0
SECTION
  2
OBJECTS
  0
DICTIONARY
  5
C
330
0
100
AcDbDictionary
281
     1
  3
ACAD_GROUP
350
D
  3
ACAD_LAYOUT
350
1A
  3
ACAD_MATERIAL
350
3B
  3
ACAD_MLEADERSTYLE
350
478
  3
ACAD_MLINESTYLE
350
17
  3
ACAD_PLOTSETTINGS
350
19
  3
ACAD_PLOTSTYLENAME
350
E
  3
ACAD_VISUALSTYLE
350
2A
  3
AcDbVariableDictionary
350
476
  0
DICTIONARY
  5
D
102
{ACAD_REACTORS
330
C
102
}
330
C
100
AcDbDictionary
281
     1
  0
DICTIONARY
  5
1A
102
{ACAD_REACTORS
330
C
102
}
330
C
100
AcDbDictionary
281
     1
  3
Layout1
350
1E
  3
Layout2
350
26
  3
Model
350
22
  0
DICTIONARY
  5
3B
102
{ACAD_REACTORS
330
C
102
}
330
C
100
AcDbDictionary
281
     1
  3
ByBlock
350
3D
  3
ByLayer
350
3C
  3
Global
350
3E
  0
DICTIONARY
  5
478
102
{ACAD_REACTORS
330
C
102
}
330
C
100
AcDbDictionary
281
     1
  0
DICTIONARY
  5
17
102
{ACAD_REACTORS
330
C
102
}
330
C
100
AcDbDictionary
281
     1
  3
Standard
350
18
  0
DICTIONARY
  5
19
102
{ACAD_REACTORS
330
C
102
}
330
C
100
AcDbDictionary
281
     1
  0
ACDBDICTIONARYWDFLT
  5
E
102
{ACAD_REACTORS
330
C
102
}
330
C
100
AcDbDictionary
281
     1
  3
Normal
350
F
100
AcDbDictionaryWithDefault
340
F
  0
DICTIONARY
  5
2A
102
{ACAD_REACTORS
330
C
102
}
330
C
100
AcDbDictionary
281
     1
  3
2dWireframe
350
2F
  3
3D Hidden
350
31
  3
3dWireframe
350
30
  3
Basic
350
32
  3
Brighten
350
36
  3
ColorChange
350
3A
  3
Conceptual
350
34
  3
Dim
350
35
  3
Facepattern
350
39
  3
Flat
350
2B
  3
FlatWithEdges
350
2C
  3
Gouraud
350
2D
  3
GouraudWithEdges
350
2E
  3
Linepattern
350
38
  3
Realistic
350
33
  3
Thicken
350
37
  0
DICTIONARY
  5
476
102
{ACAD_REACTORS
330
C
102
}
330
C
100
AcDbDictionary
281
     1
  3
DIMASSOC
350
479
  3
HIDETEXT
350
47A
  0
LAYOUT
  5
1E
102
{ACAD_REACTORS
330
1A
102
}
330
1A
100
AcDbPlotSettings
  1

  2
none_device
  4

  6

 40
0.0
 41
0.0
 42
0.0
 43
0.0
 44
0.0
 45
0.0
 46
0.0
 47
0.0
 48
0.0
 49
0.0
140
0.0
141
0.0
142
1.0
143
1.0
 70
   688
 72
     0
 73
     0
 74
     5
  7

 75
    16
147
1.0
148
0.0
149
0.0
100
AcDbLayout
  1
Layout1
 70
     1
 71
     1
 10
0.0
 20
0.0
 11
12.0
 21
9.0
 12
0.0
 22
0.0
 32
0.0
 14
1.00000000000000E+20
 24
1.00000000000000E+20
 34
1.00000000000000E+20
 15
-1.00000000000000E+20
 25
-1.00000000000000E+20
 35
-1.00000000000000E+20
146
0.0
 13
0.0
 23
0.0
 33
0.0
 16
1.0
 26
0.0
 36
0.0
 17
0.0
 27
1.0
 37
0.0
 76
     0
330
1B
  0
LAYOUT
  5
26
102
{ACAD_REACTORS
330
1A
102
}
330
1A
100
AcDbPlotSettings
  1

  2
none_device
  4

  6

 40
0.0
 41
0.0
 42
0.0
 43
0.0
 44
0.0
 45
0.0
 46
0.0
 47
0.0
 48
0.0
 49
0.0
140
0.0
141
0.0
142
1.0
143
1.0
 70
   688
 72
     0
 73
     0
 74
     5
  7

 75
    16
147
1.0
148
0.0
149
0.0
100
AcDbLayout
  1
Layout2
 70
     1
 71
     2
 10
0.0
 20
0.0
 11
0.0
 21
0.0
 12
0.0
 22
0.0
 32
0.0
 14
0.0
 24
0.0
 34
0.0
 15
0.0
 25
0.0
 35
0.0
146
0.0
 13
0.0
 23
0.0
 33
0.0
 16
1.0
 26
0.0
 36
0.0
 17
0.0
 27
1.0
 37
0.0
 76
     0
330
23
  0
LAYOUT
  5
22
102
{ACAD_REACTORS
330
1A
102
}
330
1A
100
AcDbPlotSettings
  1

  2
none_device
  4

  6

 40
0.0
 41
0.0
 42
0.0
 43
0.0
 44
0.0
 45
0.0
 46
0.0
 47
0.0
 48
0.0
 49
0.0
140
0.0
141
0.0
142
1.0
143
1.0
 70
  1712
 72
     0
 73
     0
 74
     0
  7

 75
     0
147
1.0
148
0.0
149
0.0
100
AcDbLayout
  1
Model
 70
     1
 71
     0
 10
0.0
 20
0.0
 11
12.0
 21
9.0
 12
0.0
 22
0.0
 32
0.0
 14
0.0
 24
0.0
 34
0.0
 15
112.646953488526
 25
148.5000000000001
 35
0.0
146
0.0
 13
0.0
 23
0.0
 33
0.0
 16
1.0
 26
0.0
 36
0.0
 17
0.0
 27
1.0
 37
0.0
 76
     0
330
1F
331
29
  0
MATERIAL
  5
3D
102
{ACAD_REACTORS
330
3B
102
}
102
{ACAD_XDICTIONARY
360
49D
102
}
330
3B
100
AcDbMaterial
  1
ByBlock
  0
MATERIAL
  5
3C
102
{ACAD_REACTORS
330
3B
102
}
102
{ACAD_XDICTIONARY
360
49B
102
}
330
3B
100
AcDbMaterial
  1
ByLayer
  0
MATERIAL
  5
3E
102
{ACAD_REACTORS
330
3B
102
}
102
{ACAD_XDICTIONARY
360
49F
102
}
330
3B
100
AcDbMaterial
  1
Global
  0
MLINESTYLE
  5
18
102
{ACAD_REACTORS
330
17
102
}
330
17
100
AcDbMlineStyle
  2
Standard
 70
     0
  3

 62
   256
 51
90.0
 52
90.0
 71
     2
 49
0.5
 62
   256
  6
BYLAYER
 49
-0.5
 62
   256
  6
BYLAYER
  0
ACDBPLACEHOLDER
  5
F
102
{ACAD_REACTORS
330
E
102
}
330
E
  0
VISUALSTYLE
  5
2F
102
{ACAD_REACTORS
330
2A
102
}
102
{ACAD_XDICTIONARY
360
483
102
}
330
2A
100
AcDbVisualStyle
  2
2dWireframe
 70
     4
 71
     0
 72
     2
 73
     0
 90
        0
 40
-0.6
 41
-30.0
 62
     5
 63
     7
 74
     1
 91
        4
 64
     7
 65
   257
 75
     1
175
     1
 42
1.0
 92
        0
 66
   257
 43
1.0
 76
     1
 77
     6
 78
     2
 67
     7
 79
     5
170
     0
171
     0
290
     0
174
     0
 93
        1
 44
0.0
173
     0
291
     0
 45
0.0
1001
ACAD
1000
AcDbSavedByObjectVersion
1070
     0
  0
VISUALSTYLE
  5
31
102
{ACAD_REACTORS
330
2A
102
}
102
{ACAD_XDICTIONARY
360
487
102
}
330
2A
100
AcDbVisualStyle
  2
3D Hidden
 70
     6
 71
     1
 72
     2
 73
     2
 90
        0
 40
-0.6
 41
-30.0
 62
     5
 63
     7
 74
     2
 91
        2
 64
     7
 65
   257
 75
     2
175
     1
 42
40.0
 92
        0
 66
   257
 43
1.0
 76
     1
 77
     6
 78
     2
 67
     7
 79
     3
170
     0
171
     0
290
     0
174
     0
 93
        1
 44
0.0
173
     0
291
     0
 45
0.0
1001
ACAD
1000
AcDbSavedByObjectVersion
1070
     0
  0
VISUALSTYLE
  5
30
102
{ACAD_REACTORS
330
2A
102
}
102
{ACAD_XDICTIONARY
360
485
102
}
330
2A
100
AcDbVisualStyle
  2
3dWireframe
 70
     5
 71
     0
 72
     2
 73
     0
 90
        0
 40
-0.6
 41
-30.0
 62
     5
 63
     7
 74
     1
 91
        4
 64
     7
 65
   257
 75
     1
175
     1
 42
1.0
 92
        0
 66
   257
 43
1.0
 76
     1
 77
     6
 78
     2
 67
     7
 79
     5
170
     0
171
     0
290
     0
174
     0
 93
        1
 44
0.0
173
     0
291
     0
 45
0.0
1001
ACAD
1000
AcDbSavedByObjectVersion
1070
     0
  0
VISUALSTYLE
  5
32
102
{ACAD_REACTORS
330
2A
102
}
102
{ACAD_XDICTIONARY
360
489
102
}
330
2A
100
AcDbVisualStyle
  2
Basic
 70
     7
 71
     1
 72
     0
 73
     1
 90
        0
 40
-0.6
 41
-30.0
 62
     5
 63
     7
 74
     0
 91
        4
 64
     7
 65
   257
 75
     1
175
     1
 42
1.0
 92
        8
 66
     7
 43
1.0
 76
     1
 77
     6
 78
     2
 67
     7
 79
     5
170
     0
171
     0
290
     0
174
     0
 93
        1
 44
0.0
173
     0
291
     1
 45
0.0
1001
ACAD
1000
AcDbSavedByObjectVersion
1070
     0
  0
VISUALSTYLE
  5
36
102
{ACAD_REACTORS
330
2A
102
}
102
{ACAD_XDICTIONARY
360
491
102
}
330
2A
100
AcDbVisualStyle
  2
Brighten
 70
    12
 71
     2
 72
     2
 73
     0
 90
        0
 40
-0.6
 41
-30.0
 62
     5
 63
     7
 74
     1
 91
        4
 64
     7
 65
   257
 75
     1
175
     1
 42
1.0
 92
        8
 66
     7
 43
1.0
 76
     1
 77
     6
 78
     2
 67
     7
 79
     5
170
     0
171
     0
290
     0
174
     0
 93
        1
 44
50.0
173
     0
291
     1
 45
0.0
1001
ACAD
1000
AcDbSavedByObjectVersion
1070
     0
  0
VISUALSTYLE
  5
3A
102
{ACAD_REACTORS
330
2A
102
}
102
{ACAD_XDICTIONARY
360
499
102
}
330
2A
100
AcDbVisualStyle
  2
ColorChange
 70
    16
 71
     2
 72
     2
 73
     3
 90
        0
 40
-0.6
 41
-30.0
 62
     5
 63
     8
 74
     1
 91
        4
 64
     7
 65
   257
 75
     1
175
     1
 42
1.0
 92
        8
 66
     8
 43
1.0
 76
     1
 77
     6
 78
     2
 67
     7
 79
     5
170
     0
171
     0
290
     0
174
     0
 93
        1
 44
0.0
173
     0
291
     1
 45
0.0
1001
ACAD
1000
AcDbSavedByObjectVersion
1070
     0
  0
VISUALSTYLE
  5
34
102
{ACAD_REACTORS
330
2A
102
}
102
{ACAD_XDICTIONARY
360
48D
102
}
330
2A
100
AcDbVisualStyle
  2
Conceptual
 70
     9
 71
     3
 72
     2
 73
     0
 90
        0
 40
-0.6
 41
-30.0
 62
     5
 63
     7
 74
     2
 91
        2
 64
     7
 65
   257
 75
     1
175
     1
 42
40.0
 92
        8
 66
     7
 43
1.0
 76
     1
 77
     6
 78
     2
 67
     7
 79
     3
170
     0
171
     0
290
     0
174
     0
 93
        1
 44
0.0
173
     0
291
     0
 45
0.0
1001
ACAD
1000
AcDbSavedByObjectVersion
1070
     0
  0
VISUALSTYLE
  5
35
102
{ACAD_REACTORS
330
2A
102
}
102
{ACAD_XDICTIONARY
360
48F
102
}
330
2A
100
AcDbVisualStyle
  2
Dim
 70
    11
 71
     2
 72
     2
 73
     0
 90
        0
 40
-0.6
 41
-30.0
 62
     5
 63
     7
 74
     1
 91
        4
 64
     7
 65
   257
 75
     1
175
     1
 42
1.0
 92
        8
 66
     7
 43
1.0
 76
     1
 77
     6
 78
     2
 67
     7
 79
     5
170
     0
171
     0
290
     0
174
     0
 93
        1
 44
-50.0
173
     0
291
     1
 45
0.0
1001
ACAD
1000
AcDbSavedByObjectVersion
1070
     0
  0
VISUALSTYLE
  5
39
102
{ACAD_REACTORS
330
2A
102
}
102
{ACAD_XDICTIONARY
360
497
102
}
330
2A
100
AcDbVisualStyle
  2
Facepattern
 70
    15
 71
     2
 72
     2
 73
     0
 90
        0
 40
-0.6
 41
-30.0
 62
     5
 63
     7
 74
     1
 91
        4
 64
     7
 65
   257
 75
     1
175
     1
 42
1.0
 92
        8
 66
     7
 43
1.0
 76
     1
 77
     6
 78
     2
 67
     7
 79
     5
170
     0
171
     0
290
     0
174
     0
 93
        1
 44
0.0
173
     0
291
     1
 45
0.0
1001
ACAD
1000
AcDbSavedByObjectVersion
1070
     0
  0
VISUALSTYLE
  5
2B
102
{ACAD_REACTORS
330
2A
102
}
102
{ACAD_XDICTIONARY
360
47B
102
}
330
2A
100
AcDbVisualStyle
  2
Flat
 70
     0
 71
     2
 72
     1
 73
     1
 90
        2
 40
-0.6
 41
30.0
 62
     5
 63
     7
 74
     0
 91
        4
 64
     7
 65
   257
 75
     1
175
     1
 42
1.0
 92
        8
 66
     7
 43
1.0
 76
     1
 77
     6
 78
     2
 67
     7
 79
     5
170
     0
171
     0
290
     0
174
     0
 93
       13
 44
0.0
173
     0
291
     1
 45
0.0
1001
ACAD
1000
AcDbSavedByObjectVersion
1070
     0
  0
VISUALSTYLE
  5
2C
102
{ACAD_REACTORS
330
2A
102
}
102
{ACAD_XDICTIONARY
360
47D
102
}
330
2A
100
AcDbVisualStyle
  2
FlatWithEdges
 70
     1
 71
     2
 72
     1
 73
     1
 90
        2
 40
-0.6
 41
30.0
 62
     5
 63
     7
 74
     1
 91
        4
 64
     7
 65
   257
 75
     1
175
     1
 42
1.0
 92
        0
 66
   257
 43
1.0
 76
     1
 77
     6
 78
     2
 67
     7
 79
     5
170
     0
171
     0
290
     0
174
     0
 93
       13
 44
0.0
173
     0
291
     1
 45
0.0
1001
ACAD
1000
AcDbSavedByObjectVersion
1070
     0
  0
VISUALSTYLE
  5
2D
102
{ACAD_REACTORS
330
2A
102
}
102
{ACAD_XDICTIONARY
360
47F
102
}
330
2A
100
AcDbVisualStyle
  2
Gouraud
 70
     2
 71
     2
 72
     2
 73
     1
 90
        2
 40
-0.6
 41
30.0
 62
     5
 63
     7
 74
     0
 91
        4
 64
     7
 65
   257
 75
     1
175
     1
 42
1.0
 92
        0
 66
     7
 43
1.0
 76
     1
 77
     6
 78
     2
 67
     7
 79
     5
170
     0
171
     0
290
     0
174
     0
 93
       13
 44
0.0
173
     0
291
     1
 45
0.0
1001
ACAD
1000
AcDbSavedByObjectVersion
1070
     0
  0
VISUALSTYLE
  5
2E
102
{ACAD_REACTORS
330
2A
102
}
102
{ACAD_XDICTIONARY
360
481
102
}
330
2A
100
AcDbVisualStyle
  2
GouraudWithEdges
 70
     3
 71
     2
 72
     2
 73
     1
 90
        2
 40
-0.6
 41
30.0
 62
     5
 63
     7
 74
     1
 91
        4
 64
     7
 65
   257
 75
     1
175
     1
 42
1.0
 92
        0
 66
   257
 43
1.0
 76
     1
 77
     6
 78
     2
 67
     7
 79
     5
170
     0
171
     0
290
     0
174
     0
 93
       13
 44
0.0
173
     0
291
     1
 45
0.0
1001
ACAD
1000
AcDbSavedByObjectVersion
1070
     0
  0
VISUALSTYLE
  5
38
102
{ACAD_REACTORS
330
2A
102
}
102
{ACAD_XDICTIONARY
360
495
102
}
330
2A
100
AcDbVisualStyle
  2
Linepattern
 70
    14
 71
     2
 72
     2
 73
     0
 90
        0
 40
-0.6
 41
-30.0
 62
     5
 63
     7
 74
     1
 91
        4
 64
     7
 65
   257
 75
     7
175
     7
 42
1.0
 92
        8
 66
     7
 43
1.0
 76
     1
 77
     6
 78
     2
 67
     7
 79
     5
170
     0
171
     0
290
     0
174
     0
 93
        1
 44
0.0
173
     0
291
     1
 45
0.0
1001
ACAD
1000
AcDbSavedByObjectVersion
1070
     0
  0
VISUALSTYLE
  5
33
102
{ACAD_REACTORS
330
2A
102
}
102
{ACAD_XDICTIONARY
360
48B
102
}
330
2A
100
AcDbVisualStyle
  2
Realistic
 70
     8
 71
     2
 72
     2
 73
     0
 90
        0
 40
-0.6
 41
-30.0
 62
     5
 63
     7
 74
     1
 91
        0
 64
     7
 65
   257
 75
     1
175
     1
 42
1.0
 92
        8
 66
     8
 43
1.0
 76
     1
 77
     6
 78
     2
 67
     7
 79
     5
170
     0
171
     0
290
     0
174
     0
 93
       13
 44
0.0
173
     0
291
     0
 45
0.0
1001
ACAD
1000
AcDbSavedByObjectVersion
1070
     0
  0
VISUALSTYLE
  5
37
102
{ACAD_REACTORS
330
2A
102
}
102
{ACAD_XDICTIONARY
360
493
102
}
330
2A
100
AcDbVisualStyle
  2
Thicken
 70
    13
 71
     2
 72
     2
 73
     0
 90
        0
 40
-0.6
 41
-30.0
 62
     5
 63
     7
 74
     1
 91
        4
 64
     7
 65
   257
 75
     1
175
     1
 42
1.0
 92
       12
 66
     7
 43
1.0
 76
     1
 77
     6
 78
     2
 67
     7
 79
     5
170
     0
171
     0
290
     0
174
     0
 93
        1
 44
0.0
173
     0
291
     1
 45
0.0
1001
ACAD
1000
AcDbSavedByObjectVersion
1070
     0
  0
DICTIONARYVAR
  5
479
102
{ACAD_REACTORS
330
476
102
}
330
476
100
DictionaryVariables
280
     0
  1
2
  0
DICTIONARYVAR
  5
47A
102
{ACAD_REACTORS
330
476
102
}
330
476
100
DictionaryVariables
280
     0
  1
1
  0
DICTIONARY
  5
49D
330
3D
100
AcDbDictionary
280
     1
281
     1
  3
ACAD_XREC_ROUNDTRIP
360
49E
  0
DICTIONARY
  5
49B
330
3C
100
AcDbDictionary
280
     1
281
     1
  3
ACAD_XREC_ROUNDTRIP
360
49C
  0
DICTIONARY
  5
49F
330
3E
100
AcDbDictionary
280
     1
281
     1
  3
ACAD_XREC_ROUNDTRIP
360
4A0
  0
DICTIONARY
  5
483
330
2F
100
AcDbDictionary
280
     1
281
     1
  3
ACAD_XREC_ROUNDTRIP
360
484
  0
DICTIONARY
  5
487
330
31
100
AcDbDictionary
280
     1
281
     1
  3
ACAD_XREC_ROUNDTRIP
360
488
  0
DICTIONARY
  5
485
330
30
100
AcDbDictionary
280
     1
281
     1
  3
ACAD_XREC_ROUNDTRIP
360
486
  0
DICTIONARY
  5
489
330
32
100
AcDbDictionary
280
     1
281
     1
  3
ACAD_XREC_ROUNDTRIP
360
48A
  0
DICTIONARY
  5
491
330
36
100
AcDbDictionary
280
     1
281
     1
  3
ACAD_XREC_ROUNDTRIP
360
492
  0
DICTIONARY
  5
499
330
3A
100
AcDbDictionary
280
     1
281
     1
  3
ACAD_XREC_ROUNDTRIP
360
49A
  0
DICTIONARY
  5
48D
330
34
100
AcDbDictionary
280
     1
281
     1
  3
ACAD_XREC_ROUNDTRIP
360
48E
  0
DICTIONARY
  5
48F
330
35
100
AcDbDictionary
280
     1
281
     1
  3
ACAD_XREC_ROUNDTRIP
360
490
  0
DICTIONARY
  5
497
330
39
100
AcDbDictionary
280
     1
281
     1
  3
ACAD_XREC_ROUNDTRIP
360
498
  0
DICTIONARY
  5
47B
330
2B
100
AcDbDictionary
280
     1
281
     1
  3
ACAD_XREC_ROUNDTRIP
360
47C
  0
DICTIONARY
  5
47D
330
2C
100
AcDbDictionary
280
     1
281
     1
  3
ACAD_XREC_ROUNDTRIP
360
47E
  0
DICTIONARY
  5
47F
330
2D
100
AcDbDictionary
280
     1
281
     1
  3
ACAD_XREC_ROUNDTRIP
360
480
  0
DICTIONARY
  5
481
330
2E
100
AcDbDictionary
280
     1
281
     1
  3
ACAD_XREC_ROUNDTRIP
360
482
  0
DICTIONARY
  5
495
330
38
100
AcDbDictionary
280
     1
281
     1
  3
ACAD_XREC_ROUNDTRIP
360
496
  0
DICTIONARY
  5
48B
330
33
100
AcDbDictionary
280
     1
281
     1
  3
ACAD_XREC_ROUNDTRIP
360
48C
  0
DICTIONARY
  5
493
330
37
100
AcDbDictionary
280
     1
281
     1
  3
ACAD_XREC_ROUNDTRIP
360
494
  0
XRECORD
  5
49E
102
{ACAD_REACTORS
330
49D
102
}
330
49D
100
AcDbXrecord
280
     1
102
MATERIAL
148
0.0
149
0.0
149
0.0
 93
        0
 94
      127
282
     0
 72
     1
 77
     1
171
     1
175
     1
179
     1
273
     0
  0
XRECORD
  5
49C
102
{ACAD_REACTORS
330
49B
102
}
330
49B
100
AcDbXrecord
280
     1
102
MATERIAL
148
0.0
149
0.0
149
0.0
 93
        0
 94
      127
282
     0
 72
     1
 77
     1
171
     1
175
     1
179
     1
273
     0
  0
XRECORD
  5
4A0
102
{ACAD_REACTORS
330
49F
102
}
330
49F
100
AcDbXrecord
280
     1
102
MATERIAL
148
0.0
149
0.0
149
0.0
 93
        0
 94
      127
282
     0
 72
     1
 77
     1
171
     1
175
     1
179
     1
273
     0
  0
XRECORD
  5
484
102
{ACAD_REACTORS
330
483
102
}
330
483
100
AcDbXrecord
280
     1
102
RTVSPropertyOp0
 70
     1
102
RTVSPropertyOp1
 70
     1
102
RTVSPropertyOp2
 70
     1
102
RTVSPropertyOp3
 70
     1
102
RTVSPropertyOp4
 70
     1
102
RTVSPropertyOp5
 70
     1
102
RTVSPropertyOp6
 70
     1
102
RTVSPropertyOp7
 70
     1
102
RTVSPropertyOp8
 70
     1
102
RTVSPropertyOp9
 70
     1
102
RTVSPropertyOp10
 70
     1
102
RTVSPropertyOp11
 70
     1
102
RTVSPropertyOp12
 70
     1
102
RTVSPropertyOp13
 70
     1
102
RTVSPropertyOp14
 70
     1
102
RTVSPropertyOp15
 70
     1
102
RTVSPropertyOp16
 70
     1
102
RTVSPropertyOp17
 70
     1
102
RTVSPropertyOp18
 70
     1
102
RTVSPropertyOp19
 70
     1
102
RTVSPropertyOp20
 70
     1
102
RTVSPropertyOp21
 70
     1
102
RTVSPropertyOp22
 70
     1
102
RTVSPropertyOp23
 70
     1
102
RTVSPropertyOp24
 70
     1
102
RTVSPropertyOp25
 70
     1
102
RTVSPropertyOp26
 70
     1
102
RTVSPropertyOp27
 70
     1
102
RTVSPropertyOp28
 70
     1
102
RTVSPropertyOp29
 70
     1
102
RTVSPropertyOp30
 70
     1
102
RTVSPropertyOp31
 70
     1
102
RTVSPropertyOp32
 70
     1
  0
XRECORD
  5
488
102
{ACAD_REACTORS
330
487
102
}
330
487
100
AcDbXrecord
280
     1
102
RTVSPropertyOp0
 70
     1
102
RTVSPropertyOp1
 70
     1
102
RTVSPropertyOp2
 70
     1
102
RTVSPropertyOp3
 70
     1
102
RTVSPropertyOp4
 70
     1
102
RTVSPropertyOp5
 70
     1
102
RTVSPropertyOp6
 70
     1
102
RTVSPropertyOp7
 70
     1
102
RTVSPropertyOp8
 70
     1
102
RTVSPropertyOp9
 70
     1
102
RTVSPropertyOp10
 70
     1
102
RTVSPropertyOp11
 70
     1
102
RTVSPropertyOp12
 70
     1
102
RTVSPropertyOp13
 70
     1
102
RTVSPropertyOp14
 70
     1
102
RTVSPropertyOp15
 70
     1
102
RTVSPropertyOp16
 70
     1
102
RTVSPropertyOp17
 70
     1
102
RTVSPropertyOp18
 70
     1
102
RTVSPropertyOp19
 70
     1
102
RTVSPropertyOp20
 70
     1
102
RTVSPropertyOp21
 70
     1
102
RTVSPropertyOp22
 70
     1
102
RTVSPropertyOp23
 70
     1
102
RTVSPropertyOp24
 70
     1
102
RTVSPropertyOp25
 70
     1
102
RTVSPropertyOp26
 70
     1
102
RTVSPropertyOp27
 70
     1
102
RTVSPropertyOp28
 70
     1
102
RTVSPropertyOp29
 70
     1
102
RTVSPropertyOp30
 70
     1
102
RTVSPropertyOp31
 70
     1
102
RTVSPropertyOp32
 70
     1
  0
XRECORD
  5
486
102
{ACAD_REACTORS
330
485
102
}
330
485
100
AcDbXrecord
280
     1
102
RTVSPropertyOp0
 70
     1
102
RTVSPropertyOp1
 70
     1
102
RTVSPropertyOp2
 70
     1
102
RTVSPropertyOp3
 70
     1
102
RTVSPropertyOp4
 70
     1
102
RTVSPropertyOp5
 70
     1
102
RTVSPropertyOp6
 70
     1
102
RTVSPropertyOp7
 70
     1
102
RTVSPropertyOp8
 70
     1
102
RTVSPropertyOp9
 70
     1
102
RTVSPropertyOp10
 70
     1
102
RTVSPropertyOp11
 70
     1
102
RTVSPropertyOp12
 70
     1
102
RTVSPropertyOp13
 70
     1
102
RTVSPropertyOp14
 70
     1
102
RTVSPropertyOp15
 70
     1
102
RTVSPropertyOp16
 70
     1
102
RTVSPropertyOp17
 70
     1
102
RTVSPropertyOp18
 70
     1
102
RTVSPropertyOp19
 70
     1
102
RTVSPropertyOp20
 70
     1
102
RTVSPropertyOp21
 70
     1
102
RTVSPropertyOp22
 70
     1
102
RTVSPropertyOp23
 70
     1
102
RTVSPropertyOp24
 70
     1
102
RTVSPropertyOp25
 70
     1
102
RTVSPropertyOp26
 70
     1
102
RTVSPropertyOp27
 70
     1
102
RTVSPropertyOp28
 70
     1
102
RTVSPropertyOp29
 70
     1
102
RTVSPropertyOp30
 70
     1
102
RTVSPropertyOp31
 70
     1
102
RTVSPropertyOp32
 70
     1
  0
XRECORD
  5
48A
102
{ACAD_REACTORS
330
489
102
}
330
489
100
AcDbXrecord
280
     1
102
RTVSPropertyOp0
 70
     1
102
RTVSPropertyOp1
 70
     1
102
RTVSPropertyOp2
 70
     1
102
RTVSPropertyOp3
 70
     1
102
RTVSPropertyOp4
 70
     1
102
RTVSPropertyOp5
 70
     1
102
RTVSPropertyOp6
 70
     1
102
RTVSPropertyOp7
 70
     1
102
RTVSPropertyOp8
 70
     1
102
RTVSPropertyOp9
 70
     1
102
RTVSPropertyOp10
 70
     1
102
RTVSPropertyOp11
 70
     1
102
RTVSPropertyOp12
 70
     1
102
RTVSPropertyOp13
 70
     1
102
RTVSPropertyOp14
 70
     1
102
RTVSPropertyOp15
 70
     1
102
RTVSPropertyOp16
 70
     1
102
RTVSPropertyOp17
 70
     1
102
RTVSPropertyOp18
 70
     1
102
RTVSPropertyOp19
 70
     1
102
RTVSPropertyOp20
 70
     1
102
RTVSPropertyOp21
 70
     1
102
RTVSPropertyOp22
 70
     1
102
RTVSPropertyOp23
 70
     1
102
RTVSPropertyOp24
 70
     1
102
RTVSPropertyOp25
 70
     1
102
RTVSPropertyOp26
 70
     1
102
RTVSPropertyOp27
 70
     1
102
RTVSPropertyOp28
 70
     1
102
RTVSPropertyOp29
 70
     1
102
RTVSPropertyOp30
 70
     1
102
RTVSPropertyOp31
 70
     1
102
RTVSPropertyOp32
 70
     1
  0
XRECORD
  5
492
102
{ACAD_REACTORS
330
491
102
}
330
491
100
AcDbXrecord
280
     1
102
RTVSPropertyOp0
 70
     1
102
RTVSPropertyOp1
 70
     1
102
RTVSPropertyOp2
 70
     1
102
RTVSPropertyOp3
 70
     1
102
RTVSPropertyOp4
 70
     1
102
RTVSPropertyOp5
 70
     1
102
RTVSPropertyOp6
 70
     1
102
RTVSPropertyOp7
 70
     1
102
RTVSPropertyOp8
 70
     1
102
RTVSPropertyOp9
 70
     1
102
RTVSPropertyOp10
 70
     1
102
RTVSPropertyOp11
 70
     1
102
RTVSPropertyOp12
 70
     1
102
RTVSPropertyOp13
 70
     1
102
RTVSPropertyOp14
 70
     1
102
RTVSPropertyOp15
 70
     1
102
RTVSPropertyOp16
 70
     1
102
RTVSPropertyOp17
 70
     1
102
RTVSPropertyOp18
 70
     1
102
RTVSPropertyOp19
 70
     1
102
RTVSPropertyOp20
 70
     1
102
RTVSPropertyOp21
 70
     1
102
RTVSPropertyOp22
 70
     1
102
RTVSPropertyOp23
 70
     1
102
RTVSPropertyOp24
 70
     1
102
RTVSPropertyOp25
 70
     1
102
RTVSPropertyOp26
 70
     1
102
RTVSPropertyOp27
 70
     1
102
RTVSPropertyOp28
 70
     1
102
RTVSPropertyOp29
 70
     1
102
RTVSPropertyOp30
 70
     1
102
RTVSPropertyOp31
 70
     1
102
RTVSPropertyOp32
 70
     1
  0
XRECORD
  5
49A
102
{ACAD_REACTORS
330
499
102
}
330
499
100
AcDbXrecord
280
     1
102
RTVSPropertyOp0
 70
     1
102
RTVSPropertyOp1
 70
     1
102
RTVSPropertyOp2
 70
     1
102
RTVSPropertyOp3
 70
     1
102
RTVSPropertyOp4
 70
     1
102
RTVSPropertyOp5
 70
     1
102
RTVSPropertyOp6
 70
     1
102
RTVSPropertyOp7
 70
     1
102
RTVSPropertyOp8
 70
     1
102
RTVSPropertyOp9
 70
     1
102
RTVSPropertyOp10
 70
     1
102
RTVSPropertyOp11
 70
     1
102
RTVSPropertyOp12
 70
     1
102
RTVSPropertyOp13
 70
     1
102
RTVSPropertyOp14
 70
     1
102
RTVSPropertyOp15
 70
     1
102
RTVSPropertyOp16
 70
     1
102
RTVSPropertyOp17
 70
     1
102
RTVSPropertyOp18
 70
     1
102
RTVSPropertyOp19
 70
     1
102
RTVSPropertyOp20
 70
     1
102
RTVSPropertyOp21
 70
     1
102
RTVSPropertyOp22
 70
     1
102
RTVSPropertyOp23
 70
     1
102
RTVSPropertyOp24
 70
     1
102
RTVSPropertyOp25
 70
     1
102
RTVSPropertyOp26
 70
     1
102
RTVSPropertyOp27
 70
     1
102
RTVSPropertyOp28
 70
     1
102
RTVSPropertyOp29
 70
     1
102
RTVSPropertyOp30
 70
     1
102
RTVSPropertyOp31
 70
     1
102
RTVSPropertyOp32
 70
     1
  0
XRECORD
  5
48E
102
{ACAD_REACTORS
330
48D
102
}
330
48D
100
AcDbXrecord
280
     1
102
RTVSPropertyOp0
 70
     1
102
RTVSPropertyOp1
 70
     1
102
RTVSPropertyOp2
 70
     1
102
RTVSPropertyOp3
 70
     1
102
RTVSPropertyOp4
 70
     1
102
RTVSPropertyOp5
 70
     1
102
RTVSPropertyOp6
 70
     1
102
RTVSPropertyOp7
 70
     1
102
RTVSPropertyOp8
 70
     1
102
RTVSPropertyOp9
 70
     1
102
RTVSPropertyOp10
 70
     1
102
RTVSPropertyOp11
 70
     1
102
RTVSPropertyOp12
 70
     1
102
RTVSPropertyOp13
 70
     1
102
RTVSPropertyOp14
 70
     1
102
RTVSPropertyOp15
 70
     1
102
RTVSPropertyOp16
 70
     1
102
RTVSPropertyOp17
 70
     1
102
RTVSPropertyOp18
 70
     1
102
RTVSPropertyOp19
 70
     1
102
RTVSPropertyOp20
 70
     1
102
RTVSPropertyOp21
 70
     1
102
RTVSPropertyOp22
 70
     1
102
RTVSPropertyOp23
 70
     1
102
RTVSPropertyOp24
 70
     1
102
RTVSPropertyOp25
 70
     1
102
RTVSPropertyOp26
 70
     1
102
RTVSPropertyOp27
 70
     1
102
RTVSPropertyOp28
 70
     1
102
RTVSPropertyOp29
 70
     1
102
RTVSPropertyOp30
 70
     1
102
RTVSPropertyOp31
 70
     1
102
RTVSPropertyOp32
 70
     1
  0
XRECORD
  5
490
102
{ACAD_REACTORS
330
48F
102
}
330
48F
100
AcDbXrecord
280
     1
102
RTVSPropertyOp0
 70
     1
102
RTVSPropertyOp1
 70
     1
102
RTVSPropertyOp2
 70
     1
102
RTVSPropertyOp3
 70
     1
102
RTVSPropertyOp4
 70
     1
102
RTVSPropertyOp5
 70
     1
102
RTVSPropertyOp6
 70
     1
102
RTVSPropertyOp7
 70
     1
102
RTVSPropertyOp8
 70
     1
102
RTVSPropertyOp9
 70
     1
102
RTVSPropertyOp10
 70
     1
102
RTVSPropertyOp11
 70
     1
102
RTVSPropertyOp12
 70
     1
102
RTVSPropertyOp13
 70
     1
102
RTVSPropertyOp14
 70
     1
102
RTVSPropertyOp15
 70
     1
102
RTVSPropertyOp16
 70
     1
102
RTVSPropertyOp17
 70
     1
102
RTVSPropertyOp18
 70
     1
102
RTVSPropertyOp19
 70
     1
102
RTVSPropertyOp20
 70
     1
102
RTVSPropertyOp21
 70
     1
102
RTVSPropertyOp22
 70
     1
102
RTVSPropertyOp23
 70
     1
102
RTVSPropertyOp24
 70
     1
102
RTVSPropertyOp25
 70
     1
102
RTVSPropertyOp26
 70
     1
102
RTVSPropertyOp27
 70
     1
102
RTVSPropertyOp28
 70
     1
102
RTVSPropertyOp29
 70
     1
102
RTVSPropertyOp30
 70
     1
102
RTVSPropertyOp31
 70
     1
102
RTVSPropertyOp32
 70
     1
  0
XRECORD
  5
498
102
{ACAD_REACTORS
330
497
102
}
330
497
100
AcDbXrecord
280
     1
102
RTVSPropertyOp0
 70
     1
102
RTVSPropertyOp1
 70
     1
102
RTVSPropertyOp2
 70
     1
102
RTVSPropertyOp3
 70
     1
102
RTVSPropertyOp4
 70
     1
102
RTVSPropertyOp5
 70
     1
102
RTVSPropertyOp6
 70
     1
102
RTVSPropertyOp7
 70
     1
102
RTVSPropertyOp8
 70
     1
102
RTVSPropertyOp9
 70
     1
102
RTVSPropertyOp10
 70
     1
102
RTVSPropertyOp11
 70
     1
102
RTVSPropertyOp12
 70
     1
102
RTVSPropertyOp13
 70
     1
102
RTVSPropertyOp14
 70
     1
102
RTVSPropertyOp15
 70
     1
102
RTVSPropertyOp16
 70
     1
102
RTVSPropertyOp17
 70
     1
102
RTVSPropertyOp18
 70
     1
102
RTVSPropertyOp19
 70
     1
102
RTVSPropertyOp20
 70
     1
102
RTVSPropertyOp21
 70
     1
102
RTVSPropertyOp22
 70
     1
102
RTVSPropertyOp23
 70
     1
102
RTVSPropertyOp24
 70
     1
102
RTVSPropertyOp25
 70
     1
102
RTVSPropertyOp26
 70
     1
102
RTVSPropertyOp27
 70
     1
102
RTVSPropertyOp28
 70
     1
102
RTVSPropertyOp29
 70
     1
102
RTVSPropertyOp30
 70
     1
102
RTVSPropertyOp31
 70
     1
102
RTVSPropertyOp32
 70
     1
  0
XRECORD
  5
47C
102
{ACAD_REACTORS
330
47B
102
}
330
47B
100
AcDbXrecord
280
     1
102
RTVSPropertyOp0
 70
     1
102
RTVSPropertyOp1
 70
     1
102
RTVSPropertyOp2
 70
     1
102
RTVSPropertyOp3
 70
     1
102
RTVSPropertyOp4
 70
     1
102
RTVSPropertyOp5
 70
     1
102
RTVSPropertyOp6
 70
     1
102
RTVSPropertyOp7
 70
     1
102
RTVSPropertyOp8
 70
     1
102
RTVSPropertyOp9
 70
     1
102
RTVSPropertyOp10
 70
     1
102
RTVSPropertyOp11
 70
     1
102
RTVSPropertyOp12
 70
     1
102
RTVSPropertyOp13
 70
     1
102
RTVSPropertyOp14
 70
     1
102
RTVSPropertyOp15
 70
     1
102
RTVSPropertyOp16
 70
     1
102
RTVSPropertyOp17
 70
     1
102
RTVSPropertyOp18
 70
     1
102
RTVSPropertyOp19
 70
     1
102
RTVSPropertyOp20
 70
     1
102
RTVSPropertyOp21
 70
     1
102
RTVSPropertyOp22
 70
     1
102
RTVSPropertyOp23
 70
     1
102
RTVSPropertyOp24
 70
     1
102
RTVSPropertyOp25
 70
     1
102
RTVSPropertyOp26
 70
     1
102
RTVSPropertyOp27
 70
     1
102
RTVSPropertyOp28
 70
     1
102
RTVSPropertyOp29
 70
     1
102
RTVSPropertyOp30
 70
     1
102
RTVSPropertyOp31
 70
     1
102
RTVSPropertyOp32
 70
     1
  0
XRECORD
  5
47E
102
{ACAD_REACTORS
330
47D
102
}
330
47D
100
AcDbXrecord
280
     1
102
RTVSPropertyOp0
 70
     1
102
RTVSPropertyOp1
 70
     1
102
RTVSPropertyOp2
 70
     1
102
RTVSPropertyOp3
 70
     1
102
RTVSPropertyOp4
 70
     1
102
RTVSPropertyOp5
 70
     1
102
RTVSPropertyOp6
 70
     1
102
RTVSPropertyOp7
 70
     1
102
RTVSPropertyOp8
 70
     1
102
RTVSPropertyOp9
 70
     1
102
RTVSPropertyOp10
 70
     1
102
RTVSPropertyOp11
 70
     1
102
RTVSPropertyOp12
 70
     1
102
RTVSPropertyOp13
 70
     1
102
RTVSPropertyOp14
 70
     1
102
RTVSPropertyOp15
 70
     1
102
RTVSPropertyOp16
 70
     1
102
RTVSPropertyOp17
 70
     1
102
RTVSPropertyOp18
 70
     1
102
RTVSPropertyOp19
 70
     1
102
RTVSPropertyOp20
 70
     1
102
RTVSPropertyOp21
 70
     1
102
RTVSPropertyOp22
 70
     1
102
RTVSPropertyOp23
 70
     1
102
RTVSPropertyOp24
 70
     1
102
RTVSPropertyOp25
 70
     1
102
RTVSPropertyOp26
 70
     1
102
RTVSPropertyOp27
 70
     1
102
RTVSPropertyOp28
 70
     1
102
RTVSPropertyOp29
 70
     1
102
RTVSPropertyOp30
 70
     1
102
RTVSPropertyOp31
 70
     1
102
RTVSPropertyOp32
 70
     1
  0
XRECORD
  5
480
102
{ACAD_REACTORS
330
47F
102
}
330
47F
100
AcDbXrecord
280
     1
102
RTVSPropertyOp0
 70
     1
102
RTVSPropertyOp1
 70
     1
102
RTVSPropertyOp2
 70
     1
102
RTVSPropertyOp3
 70
     1
102
RTVSPropertyOp4
 70
     1
102
RTVSPropertyOp5
 70
     1
102
RTVSPropertyOp6
 70
     1
102
RTVSPropertyOp7
 70
     1
102
RTVSPropertyOp8
 70
     1
102
RTVSPropertyOp9
 70
     1
102
RTVSPropertyOp10
 70
     1
102
RTVSPropertyOp11
 70
     1
102
RTVSPropertyOp12
 70
     1
102
RTVSPropertyOp13
 70
     1
102
RTVSPropertyOp14
 70
     1
102
RTVSPropertyOp15
 70
     1
102
RTVSPropertyOp16
 70
     1
102
RTVSPropertyOp17
 70
     1
102
RTVSPropertyOp18
 70
     1
102
RTVSPropertyOp19
 70
     1
102
RTVSPropertyOp20
 70
     1
102
RTVSPropertyOp21
 70
     1
102
RTVSPropertyOp22
 70
     1
102
RTVSPropertyOp23
 70
     1
102
RTVSPropertyOp24
 70
     1
102
RTVSPropertyOp25
 70
     1
102
RTVSPropertyOp26
 70
     1
102
RTVSPropertyOp27
 70
     1
102
RTVSPropertyOp28
 70
     1
102
RTVSPropertyOp29
 70
     1
102
RTVSPropertyOp30
 70
     1
102
RTVSPropertyOp31
 70
     1
102
RTVSPropertyOp32
 70
     1
  0
XRECORD
  5
482
102
{ACAD_REACTORS
330
481
102
}
330
481
100
AcDbXrecord
280
     1
102
RTVSPropertyOp0
 70
     1
102
RTVSPropertyOp1
 70
     1
102
RTVSPropertyOp2
 70
     1
102
RTVSPropertyOp3
 70
     1
102
RTVSPropertyOp4
 70
     1
102
RTVSPropertyOp5
 70
     1
102
RTVSPropertyOp6
 70
     1
102
RTVSPropertyOp7
 70
     1
102
RTVSPropertyOp8
 70
     1
102
RTVSPropertyOp9
 70
     1
102
RTVSPropertyOp10
 70
     1
102
RTVSPropertyOp11
 70
     1
102
RTVSPropertyOp12
 70
     1
102
RTVSPropertyOp13
 70
     1
102
RTVSPropertyOp14
 70
     1
102
RTVSPropertyOp15
 70
     1
102
RTVSPropertyOp16
 70
     1
102
RTVSPropertyOp17
 70
     1
102
RTVSPropertyOp18
 70
     1
102
RTVSPropertyOp19
 70
     1
102
RTVSPropertyOp20
 70
     1
102
RTVSPropertyOp21
 70
     1
102
RTVSPropertyOp22
 70
     1
102
RTVSPropertyOp23
 70
     1
102
RTVSPropertyOp24
 70
     1
102
RTVSPropertyOp25
 70
     1
102
RTVSPropertyOp26
 70
     1
102
RTVSPropertyOp27
 70
     1
102
RTVSPropertyOp28
 70
     1
102
RTVSPropertyOp29
 70
     1
102
RTVSPropertyOp30
 70
     1
102
RTVSPropertyOp31
 70
     1
102
RTVSPropertyOp32
 70
     1
  0
XRECORD
  5
496
102
{ACAD_REACTORS
330
495
102
}
330
495
100
AcDbXrecord
280
     1
102
RTVSPropertyOp0
 70
     1
102
RTVSPropertyOp1
 70
     1
102
RTVSPropertyOp2
 70
     1
102
RTVSPropertyOp3
 70
     1
102
RTVSPropertyOp4
 70
     1
102
RTVSPropertyOp5
 70
     1
102
RTVSPropertyOp6
 70
     1
102
RTVSPropertyOp7
 70
     1
102
RTVSPropertyOp8
 70
     1
102
RTVSPropertyOp9
 70
     1
102
RTVSPropertyOp10
 70
     1
102
RTVSPropertyOp11
 70
     1
102
RTVSPropertyOp12
 70
     1
102
RTVSPropertyOp13
 70
     1
102
RTVSPropertyOp14
 70
     1
102
RTVSPropertyOp15
 70
     1
102
RTVSPropertyOp16
 70
     1
102
RTVSPropertyOp17
 70
     1
102
RTVSPropertyOp18
 70
     1
102
RTVSPropertyOp19
 70
     1
102
RTVSPropertyOp20
 70
     1
102
RTVSPropertyOp21
 70
     1
102
RTVSPropertyOp22
 70
     1
102
RTVSPropertyOp23
 70
     1
102
RTVSPropertyOp24
 70
     1
102
RTVSPropertyOp25
 70
     1
102
RTVSPropertyOp26
 70
     1
102
RTVSPropertyOp27
 70
     1
102
RTVSPropertyOp28
 70
     1
102
RTVSPropertyOp29
 70
     1
102
RTVSPropertyOp30
 70
     1
102
RTVSPropertyOp31
 70
     1
102
RTVSPropertyOp32
 70
     1
  0
XRECORD
  5
48C
102
{ACAD_REACTORS
330
48B
102
}
330
48B
100
AcDbXrecord
280
     1
102
RTVSPropertyOp0
 70
     1
102
RTVSPropertyOp1
 70
     1
102
RTVSPropertyOp2
 70
     1
102
RTVSPropertyOp3
 70
     1
102
RTVSPropertyOp4
 70
     1
102
RTVSPropertyOp5
 70
     1
102
RTVSPropertyOp6
 70
     1
102
RTVSPropertyOp7
 70
     1
102
RTVSPropertyOp8
 70
     1
102
RTVSPropertyOp9
 70
     1
102
RTVSPropertyOp10
 70
     1
102
RTVSPropertyOp11
 70
     1
102
RTVSPropertyOp12
 70
     1
102
RTVSPropertyOp13
 70
     1
102
RTVSPropertyOp14
 70
     1
102
RTVSPropertyOp15
 70
     1
102
RTVSPropertyOp16
 70
     1
102
RTVSPropertyOp17
 70
     1
102
RTVSPropertyOp18
 70
     1
102
RTVSPropertyOp19
 70
     1
102
RTVSPropertyOp20
 70
     1
102
RTVSPropertyOp21
 70
     1
102
RTVSPropertyOp22
 70
     1
102
RTVSPropertyOp23
 70
     1
102
RTVSPropertyOp24
 70
     1
102
RTVSPropertyOp25
 70
     1
102
RTVSPropertyOp26
 70
     1
102
RTVSPropertyOp27
 70
     1
102
RTVSPropertyOp28
 70
     1
102
RTVSPropertyOp29
 70
     1
102
RTVSPropertyOp30
 70
     1
102
RTVSPropertyOp31
 70
     1
102
RTVSPropertyOp32
 70
     1
  0
XRECORD
  5
494
102
{ACAD_REACTORS
330
493
102
}
330
493
100
AcDbXrecord
280
     1
102
RTVSPropertyOp0
 70
     1
102
RTVSPropertyOp1
 70
     1
102
RTVSPropertyOp2
 70
     1
102
RTVSPropertyOp3
 70
     1
102
RTVSPropertyOp4
 70
     1
102
RTVSPropertyOp5
 70
     1
102
RTVSPropertyOp6
 70
     1
102
RTVSPropertyOp7
 70
     1
102
RTVSPropertyOp8
 70
     1
102
RTVSPropertyOp9
 70
     1
102
RTVSPropertyOp10
 70
     1
102
RTVSPropertyOp11
 70
     1
102
RTVSPropertyOp12
 70
     1
102
RTVSPropertyOp13
 70
     1
102
RTVSPropertyOp14
 70
     1
102
RTVSPropertyOp15
 70
     1
102
RTVSPropertyOp16
 70
     1
102
RTVSPropertyOp17
 70
     1
102
RTVSPropertyOp18
 70
     1
102
RTVSPropertyOp19
 70
     1
102
RTVSPropertyOp20
 70
     1
102
RTVSPropertyOp21
 70
     1
102
RTVSPropertyOp22
 70
     1
102
RTVSPropertyOp23
 70
     1
102
RTVSPropertyOp24
 70
     1
102
RTVSPropertyOp25
 70
     1
102
RTVSPropertyOp26
 70
     1
102
RTVSPropertyOp27
 70
     1
102
RTVSPropertyOp28
 70
     1
102
RTVSPropertyOp29
 70
     1
102
RTVSPropertyOp30
 70
     1
102
RTVSPropertyOp31
 70
     1
102
RTVSPropertyOp32
 70
     1
  0
ENDSEC
  0
EOF
